<?xml version="1.0" standalone="no"?>
<!DOCTYPE svg PUBLIC "-//W3C//DTD SVG 1.1//EN" "http://www.w3.org/Graphics/SVG/1.1/DTD/svg11.dtd" >
<svg xmlns="http://www.w3.org/2000/svg" xmlns:xlink="http://www.w3.org/1999/xlink" version="1.1">
<metadata>
Created by FontForge 20201107 at Mon Nov 25 05:53:06 2013
 By 
Copyright (c) 2013 by Chorong Kim &#38; Cadson Demak Team for SCG Group. All rights reserved.
</metadata>
<defs>
<font id="SCG-Light" horiz-adv-x="0" >
  <font-face 
    font-family="SCG Light"
    font-weight="400"
    font-stretch="normal"
    units-per-em="1000"
    panose-1="2 0 5 3 0 0 0 2 0 4"
    ascent="800"
    descent="-200"
    x-height="450"
    cap-height="610"
    bbox="-609 -465 1136 1101"
    underline-thickness="20"
    underline-position="-133"
    unicode-range="U+0020-FB02"
  />
<missing-glyph horiz-adv-x="555" 
d="M0 0v700h555v-700h-555zM466 650h-377l188 -255zM500 605l-189 -255l189 -255v510zM277 305l-188 -255h377zM244 350l-188 255v-510z" />
    <glyph glyph-name="uni0E5A" unicode="&#xe2f;&#xe2f;" horiz-adv-x="635" 
d="M354 -80v553q-26 -54 -68.5 -88t-109.5 -34q-64 0 -98 33.5t-34 99.5q0 19 4 35.5t8 27.5h51q-4 -10 -8 -23.5t-4 -38.5q0 -16 4 -32t14 -29t25.5 -21t39.5 -8q37 0 65 13.5t49 35t36 48.5t26 55h50v-627h-50zM505 -80v627h50v-627h-50z" />
    <glyph glyph-name="uni0E4F.liga" unicode="&#xe4f;&#x22;" horiz-adv-x="580" 
d="M195 530l-7 200h54l-7 -200h-40zM345 530l-7 200h54l-7 -200h-40zM520 248q0 -50 -18.5 -91.5t-50 -71.5t-73.5 -47t-88 -17q-47 0 -88.5 17t-73 47t-50 71.5t-18.5 91.5q0 49 18.5 90.5t50 71.5t73 46.5t88.5 16.5q46 0 88 -16.5t73.5 -46.5t50 -71.5t18.5 -90.5z
M290 56q40 0 74.5 15t60.5 41t41 61t15 75q0 39 -15 73.5t-41 60.5t-60.5 41t-74.5 15q-39 0 -74 -15t-61 -41t-41 -60.5t-15 -73.5q0 -40 15 -75t41 -61t61 -41t74 -15zM290 156q38 0 64.5 26.5t26.5 64.5t-26.5 64.5t-64.5 26.5t-64.5 -26.5t-26.5 -64.5t26.5 -64.5
t64.5 -26.5zM290 113q-28 0 -52.5 10.5t-42.5 29t-28.5 43t-10.5 52.5q0 27 10.5 51t28.5 42.5t42.5 29t52.5 10.5t52.5 -10.5t42.5 -29t28.5 -42.5t10.5 -51q0 -28 -10.5 -52.5t-28.5 -43t-42.5 -29t-52.5 -10.5z" />
    <glyph glyph-name="uni0E24.liga" unicode="&#xe24;&#xe32;" horiz-adv-x="1002" 
d="M875 -223v550q0 51 -10 86.5t-32.5 57t-57.5 31t-84 9.5q-48 0 -94.5 -10.5t-81.5 -20.5q38 -56 38 -148v-555h-50v550q0 51 -10 86.5t-32.5 57t-57.5 31t-84 9.5q-54 0 -103.5 -7t-85.5 -18v-352q0 -30 6 -49.5t17.5 -30t28 -14.5t38.5 -4q24 0 43 3.5t33 8.5v-42
q-15 -6 -36.5 -10t-43.5 -4q-64 0 -100 30t-36 106v391q51 15 112 26.5t133 11.5q98 0 153 -40q46 14 101 27t118 13q115 0 171.5 -54t56.5 -171v-555h-50z" />
    <glyph glyph-name="uni0E26.liga" unicode="&#xe26;&#xe32;" horiz-adv-x="982" 
d="M855 -223v550q0 51 -10 86.5t-32.5 57t-57.5 31t-84 9.5q-38 0 -75.5 -7t-69.5 -16q40 -52 40 -146v-565h-50v560q0 48 -9.5 81t-29.5 53.5t-52.5 30t-77.5 9.5q-51 0 -94 -7t-79 -18v-373q0 -63 -27.5 -91t-75.5 -28q-18 0 -32.5 2t-22.5 4v40q20 -5 48 -5
q27 0 43.5 17.5t16.5 62.5v404q51 15 105.5 26.5t123.5 11.5q80 0 133 -32q42 12 89.5 22t101.5 10q115 0 171.5 -54t56.5 -171v-555h-50z" />
    <glyph glyph-name="fi" unicode="fi" horiz-adv-x="550" 
d="M112 0v408h-86v42h86v22q0 46 16 81.5t44.5 59t68.5 35.5t88 12q38 0 76.5 -7.5t66.5 -20.5v-44q-28 12 -60.5 20t-77.5 8q-85 0 -128.5 -34.5t-43.5 -110.5v-21h149v-42h-149v-408h-50zM422 0v450h50v-450h-50z" />
    <glyph glyph-name="fl" unicode="fl" horiz-adv-x="550" 
d="M422 0v608q-17 3 -39.5 5.5t-48.5 2.5q-85 0 -128.5 -34.5t-43.5 -110.5v-21h149v-42h-149v-408h-50v408h-86v42h86v22q0 46 16 81.5t44.5 59t68.5 35.5t88 12q42 0 76 -4.5t67 -12.5v-643h-50z" />
    <glyph glyph-name=".notdef" horiz-adv-x="555" 
d="M0 0v700h555v-700h-555zM466 650h-377l188 -255zM500 605l-189 -255l189 -255v510zM277 305l-188 -255h377zM244 350l-188 255v-510z" />
    <glyph glyph-name=".null" 
 />
    <glyph glyph-name="nonmarkingreturn" horiz-adv-x="264" 
 />
    <glyph glyph-name="space" unicode=" " horiz-adv-x="264" 
 />
    <glyph glyph-name="exclam" unicode="!" horiz-adv-x="222" 
d="M94 210l-10 400h54l-10 -400h-34zM157 37q0 -20 -13.5 -31.5t-32.5 -11.5t-32.5 11.5t-13.5 31.5t13.5 31.5t32.5 11.5t32.5 -11.5t13.5 -31.5z" />
    <glyph glyph-name="quotedbl" unicode="&#x22;" horiz-adv-x="316" 
d="M73 410l-7 240h54l-7 -240h-40zM203 410l-7 240h54l-7 -240h-40z" />
    <glyph glyph-name="numbersign" unicode="#" horiz-adv-x="600" 
d="M314 0l38 183h-164l-38 -183h-48l38 183h-101v46h111l40 191h-98v46h107l39 182h48l-39 -182h164l39 182h48l-39 -182h102v-46h-111l-40 -191h99v-46h-109l-38 -183h-48zM402 420h-164l-40 -191h164z" />
    <glyph glyph-name="dollar" unicode="$" horiz-adv-x="600" 
d="M283 -100v91q-32 1 -62.5 7.5t-58.5 15.5t-50.5 20t-37.5 21l20 40q33 -23 83.5 -41.5t122.5 -18.5q28 0 58 4.5t55.5 17.5t42 34.5t16.5 56.5q0 30 -17 51.5t-44.5 38t-61.5 30.5t-68 29q-29 13 -63 28.5t-63 36t-48.5 48.5t-19.5 66q0 73 53 108t143 37v89h46v-90
q55 -4 94.5 -18.5t68.5 -31.5l-20 -40q-37 21 -78.5 33.5t-95.5 12.5q-76 0 -118 -22t-42 -78q0 -28 16 -48t42 -36t58.5 -29.5t64.5 -28.5q30 -14 66 -29.5t67 -36.5t51.5 -50t20.5 -70q0 -38 -16 -66t-42.5 -47t-62 -29.5t-74.5 -13.5v-92h-46z" />
    <glyph glyph-name="percent" unicode="%" horiz-adv-x="680" 
d="M88 0l458 610h46l-456 -610h-48zM185 330q-33 0 -58 11.5t-42.5 31.5t-26 46.5t-8.5 55.5t8.5 55.5t26 46.5t42.5 31.5t58 11.5t58 -11.5t42.5 -31.5t26 -46.5t8.5 -55.5t-8.5 -55.5t-26 -46.5t-42.5 -31.5t-58 -11.5zM185 363q46 0 71 29t25 83t-25 83t-71 29t-71 -29
t-25 -83t25 -83t71 -29zM495 -10q-33 0 -58 11.5t-42.5 31.5t-26 46.5t-8.5 55.5t8.5 55.5t26 46.5t42.5 31.5t58 11.5t58 -11.5t42.5 -31.5t26 -46.5t8.5 -55.5t-8.5 -55.5t-26 -46.5t-42.5 -31.5t-58 -11.5zM495 23q46 0 71 29t25 83t-25 83t-71 29t-71 -29t-25 -83
t25 -83t71 -29z" />
    <glyph glyph-name="ampersand" unicode="&#x26;" horiz-adv-x="630" 
d="M548 0l-77 74q-78 -84 -205 -84q-45 0 -84.5 10t-68.5 31t-46 52t-17 73q0 66 38.5 112t102.5 78q-15 14 -30 30t-27 34t-19.5 38t-7.5 43q0 54 42.5 91.5t121.5 37.5q81 0 123 -43t42 -115h-48q0 51 -26.5 83t-88.5 32q-54 0 -86 -21.5t-32 -63.5q0 -35 22 -64.5
t55 -61.5l233 -227q24 38 37 86t13 108h48q0 -70 -17 -127t-47 -100l109 -106h-60zM225 313q-58 -24 -90.5 -61.5t-32.5 -95.5q0 -36 15.5 -59.5t39 -37t51 -19t51.5 -5.5q113 0 179 71z" />
    <glyph glyph-name="quotesingle" unicode="'" horiz-adv-x="194" 
d="M77 410l-7 240h54l-7 -240h-40z" />
    <glyph glyph-name="parenleft" unicode="(" horiz-adv-x="266" 
d="M246 -132q-36 29 -69.5 69t-59 90t-40.5 109t-15 126t15 126t40.5 109t59 90t69.5 69v-26q-61 -60 -97.5 -153.5t-36.5 -214.5t36.5 -214.5t97.5 -153.5v-26z" />
    <glyph glyph-name="parenright" unicode=")" horiz-adv-x="266" 
d="M20 -106q61 60 97.5 153.5t36.5 214.5t-36.5 214.5t-97.5 153.5v26q36 -29 69.5 -69t59 -90t40.5 -109t15 -126t-15 -126t-40.5 -109t-59 -90t-69.5 -69v26z" />
    <glyph glyph-name="asterisk" unicode="*" horiz-adv-x="435" 
d="M232 450l6 -144h-41l6 144l-123 -84l-20 30l132 77l-132 77l20 30l123 -84l-6 144h41l-6 -144l123 84l20 -30l-132 -77l132 -77l-20 -30z" />
    <glyph glyph-name="plus" unicode="+" horiz-adv-x="514" 
d="M233 84v202h-193v44h193v202h48v-202h193v-44h-193v-202h-48z" />
    <glyph glyph-name="comma" unicode="," horiz-adv-x="208" 
d="M55 -102q15 17 30.5 43.5t15.5 52.5q-17 0 -30 12t-13 31t13 31t34 12q26 0 36.5 -15t10.5 -31q0 -22 -7 -43.5t-17.5 -40.5t-23 -35t-22.5 -27z" />
    <glyph glyph-name="hyphen" unicode="-" horiz-adv-x="316" 
d="M36 284v44h244v-44h-244z" />
    <glyph glyph-name="period" unicode="." horiz-adv-x="208" 
d="M150 37q0 -20 -13.5 -31.5t-32.5 -11.5t-32.5 11.5t-13.5 31.5t13.5 31.5t32.5 11.5t32.5 -11.5t13.5 -31.5z" />
    <glyph glyph-name="slash" unicode="/" horiz-adv-x="456" 
d="M14 -40l376 690h52l-376 -690h-52z" />
    <glyph glyph-name="zero" unicode="0" horiz-adv-x="600" 
d="M300 -10q-115 0 -179.5 80.5t-64.5 234.5t64.5 234.5t179.5 80.5t179.5 -80.5t64.5 -234.5t-64.5 -234.5t-179.5 -80.5zM300 35q99 0 146.5 70.5t47.5 199.5t-47.5 199.5t-146.5 70.5t-146.5 -70.5t-47.5 -199.5t47.5 -199.5t146.5 -70.5z" />
    <glyph glyph-name="one" unicode="1" horiz-adv-x="342" 
d="M192 0v555q-53 -78 -158 -73v42q54 -2 91.5 18t70.5 68h46v-610h-50z" />
    <glyph glyph-name="two" unicode="2" horiz-adv-x="512" 
d="M48 0v40q168 103 256.5 199.5t88.5 193.5q0 66 -41.5 104t-126.5 38q-48 0 -89.5 -10.5t-70.5 -23.5v47q22 10 65.5 21t97.5 11q57 0 97.5 -15.5t67 -41t38.5 -60t12 -71.5q0 -57 -26 -109t-69.5 -100.5t-101.5 -92.5t-122 -84h328v-46h-404z" />
    <glyph glyph-name="three" unicode="3" horiz-adv-x="492" 
d="M36 73q36 -15 81 -26t103 -11q31 0 59.5 5.5t51 20t36 40t13.5 64.5t-17 64t-47 40t-70 20.5t-85 4.5v45q43 -2 79.5 4t63.5 21.5t42 41t15 62.5q0 106 -143 106q-21 0 -44.5 -3t-46 -8.5t-43 -12t-36.5 -13.5v47q28 13 73 24t99 11q38 0 72.5 -8t61 -26t42 -47t15.5 -71
q0 -65 -34.5 -101t-82.5 -48v-2q26 -3 50.5 -14.5t43.5 -30.5t30.5 -46t11.5 -61q0 -47 -15.5 -80.5t-43.5 -54.5t-65.5 -30.5t-81.5 -9.5q-60 0 -108.5 10.5t-79.5 24.5v48z" />
    <glyph glyph-name="four" unicode="4" horiz-adv-x="528" 
d="M351 0v131h-329v41l325 438h54v-434h97v-45h-97v-131h-50zM351 544l-269 -368h269v368z" />
    <glyph glyph-name="five" unicode="5" horiz-adv-x="522" 
d="M50 67q16 -6 37 -12t44 -10.5t46.5 -7t44.5 -2.5q100 0 145 35t45 113q0 75 -49.5 107.5t-140.5 32.5q-54 0 -93 -5.5t-65 -10.5l13 303h348v-45h-304l-9 -207q19 3 54 6.5t69 3.5q112 0 169.5 -49t57.5 -136q0 -94 -58 -143.5t-181 -49.5q-46 0 -93 8.5t-80 20.5v48z
" />
    <glyph glyph-name="six" unicode="6" horiz-adv-x="554" 
d="M432 548q-20 10 -49 19.5t-67 9.5q-47 0 -85.5 -18t-67 -53.5t-44 -87.5t-15.5 -120q13 19 33 36t46 30.5t56.5 21.5t63.5 8q56 0 95 -16.5t63 -43.5t34.5 -62.5t10.5 -74.5q0 -50 -16 -88.5t-44.5 -64.5t-67 -40t-84.5 -14q-53 0 -96.5 18t-75 56t-49 95.5t-17.5 137.5
q0 81 19.5 141.5t54 101t81.5 60.5t102 20q35 0 67 -9t52 -19v-44zM104 244q3 -46 16.5 -84.5t37.5 -66.5t58 -43.5t79 -15.5q32 0 61.5 9t52 28.5t36 49.5t13.5 73q0 30 -7.5 58.5t-25.5 50t-48 34.5t-76 13q-61 0 -111.5 -27.5t-85.5 -78.5z" />
    <glyph glyph-name="seven" unicode="7" horiz-adv-x="472" 
d="M132 0l242 565h-346v45h400v-37l-246 -573h-50z" />
    <glyph glyph-name="eight" unicode="8" horiz-adv-x="552" 
d="M234 309q-47 9 -78 24.5t-50 36.5t-27 46t-8 52q0 69 53.5 110.5t147.5 41.5q100 0 152.5 -40.5t52.5 -110.5q0 -59 -42 -98t-110 -62v-2q81 -12 126 -51.5t45 -102.5q0 -78 -56 -120.5t-164 -42.5q-48 0 -88 9.5t-69.5 29t-46 48t-16.5 66.5q0 64 42 104.5t136 59.5v2z
M273 286q-36 -8 -67 -20.5t-53.5 -29.5t-35 -38.5t-12.5 -48.5q0 -60 45 -89t126 -29q27 0 57.5 6t55.5 20t41.5 37.5t16.5 58.5q0 62 -47.5 91.5t-126.5 41.5zM286 331q27 9 52.5 20t45.5 27t32 38t12 53q0 49 -40 79.5t-115 30.5q-72 0 -112.5 -31t-40.5 -80
q0 -62 43.5 -93t122.5 -44z" />
    <glyph glyph-name="nine" unicode="9" horiz-adv-x="554" 
d="M122 62q20 -10 49 -19.5t67 -9.5q46 0 85 18t67.5 53.5t44 87.5t15.5 120q-14 -19 -34.5 -36t-46 -30.5t-55.5 -21.5t-63 -8q-56 0 -95 16.5t-63 43.5t-34.5 62.5t-10.5 74.5q0 49 16 88t44.5 65t67 40t84.5 14q52 0 96 -18t75.5 -56t49 -96t17.5 -137
q0 -81 -19.5 -141.5t-54 -101t-81.5 -60.5t-102 -20q-35 0 -67 9t-52 19v44zM450 366q-3 46 -16.5 84.5t-37.5 66.5t-58 43.5t-79 15.5q-32 0 -61.5 -9t-52 -28.5t-36 -49.5t-13.5 -73q0 -30 7.5 -58.5t25.5 -50t48 -34.5t76 -13q61 0 111.5 27.5t85.5 78.5z" />
    <glyph glyph-name="colon" unicode=":" horiz-adv-x="248" 
d="M170 37q0 -20 -13.5 -31.5t-32.5 -11.5t-32.5 11.5t-13.5 31.5t13.5 31.5t32.5 11.5t32.5 -11.5t13.5 -31.5zM170 417q0 -20 -13.5 -31.5t-32.5 -11.5t-32.5 11.5t-13.5 31.5t13.5 31.5t32.5 11.5t32.5 -11.5t13.5 -31.5z" />
    <glyph glyph-name="semicolon" unicode=";" horiz-adv-x="248" 
d="M170 417q0 -20 -13.5 -31.5t-32.5 -11.5t-32.5 11.5t-13.5 31.5t13.5 31.5t32.5 11.5t32.5 -11.5t13.5 -31.5zM74 -102q15 17 30.5 43.5t15.5 52.5q-17 0 -30 12t-13 31t13 31t34 12q26 0 36.5 -15t10.5 -31q0 -22 -7 -43.5t-17.5 -40.5t-23 -35t-22.5 -27z" />
    <glyph glyph-name="less" unicode="&#x3c;" horiz-adv-x="514" 
d="M32 324v42l422 208v-43l-379 -186l379 -186v-43z" />
    <glyph glyph-name="equal" unicode="=" horiz-adv-x="514" 
d="M50 206v42h414v-42h-414zM50 366v42h414v-42h-414z" />
    <glyph glyph-name="greater" unicode="&#x3e;" horiz-adv-x="514" 
d="M60 116v43l379 186l-379 186v43l422 -208v-42z" />
    <glyph glyph-name="question" unicode="?" horiz-adv-x="430" 
d="M161 210q28 24 56.5 54t52 63.5t38 68.5t14.5 70q0 110 -119 110q-51 0 -92.5 -11.5t-70.5 -25.5v46q25 12 68.5 23.5t98.5 11.5q73 0 119 -38t46 -115q0 -40 -15 -76t-38.5 -68.5t-52 -60.5t-55.5 -52h-50zM227 37q0 -20 -13.5 -31.5t-32.5 -11.5t-32.5 11.5t-13.5 31.5
t13.5 31.5t32.5 11.5t32.5 -11.5t13.5 -31.5z" />
    <glyph glyph-name="at" unicode="@" horiz-adv-x="738" 
d="M688 133q-45 -67 -116 -106.5t-180 -39.5q-162 0 -252 82.5t-90 239.5q0 67 20 130.5t62 113t108 79t158 29.5q73 0 127.5 -23t90.5 -62t54 -90.5t18 -108.5q0 -48 -12 -91t-33 -75.5t-50.5 -52t-63.5 -19.5q-35 0 -53.5 20t-18.5 49q-18 -30 -52.5 -49.5t-82.5 -19.5
q-58 0 -94 38.5t-36 111.5q0 43 11 82t33.5 69t56.5 48t80 18q24 0 43 -7t33.5 -18t23.5 -25t13 -27l18 68h43l-51 -257q-3 -14 -3 -28q0 -16 8.5 -27.5t34.5 -11.5q25 0 46.5 16t37.5 43.5t25 65.5t9 82q0 47 -14.5 92.5t-45.5 81t-79.5 57.5t-117.5 22q-96 0 -157 -33.5
t-95.5 -83t-47.5 -107t-13 -104.5q0 -54 13.5 -106t48.5 -93t95.5 -66t154.5 -25q97 0 161.5 33.5t96.5 84.5h34zM476 383q-3 15 -9.5 30.5t-18.5 27.5t-29.5 20t-41.5 8q-33 0 -58 -14.5t-42.5 -39.5t-26.5 -57t-9 -67q0 -57 26 -86t64 -29q49 0 76.5 23.5t44.5 57.5z" />
    <glyph glyph-name="A" unicode="A" horiz-adv-x="636" 
d="M563 0l-70 156h-350l-70 -156h-53l272 610h52l272 -610h-53zM375 425l-56 137h-2l-56 -136l-98 -225h310z" />
    <glyph glyph-name="B" unicode="B" horiz-adv-x="590" 
d="M82 0v610h248q87 0 132.5 -35.5t45.5 -116.5q0 -48 -21 -82.5t-55 -56.5q62 -18 87 -59t25 -95q0 -48 -18 -80t-48 -51t-69.5 -26.5t-82.5 -7.5h-244zM326 44q31 0 61 4t53.5 17t37.5 37t14 63q0 42 -14 66.5t-36 37t-49.5 15.5t-54.5 3h-204v-243h192zM337 331
q12 0 23 -0.5t22 -1.5q34 25 54 54t20 74q0 53 -27 81t-101 28h-194v-235h203z" />
    <glyph glyph-name="C" unicode="C" horiz-adv-x="612" 
d="M560 30q-32 -16 -77.5 -28t-111.5 -12q-68 0 -125.5 21.5t-100.5 62t-67 99t-24 132.5t23.5 132.5t66 99t101 62t129.5 21.5q63 0 104.5 -11t70.5 -26v-50q-38 22 -78.5 31t-96.5 9q-60 0 -109.5 -17.5t-84.5 -51.5t-54.5 -84t-19.5 -115t19.5 -115t55 -84t84 -51.5
t106.5 -17.5q63 0 107.5 13.5t81.5 33.5v-54z" />
    <glyph glyph-name="D" unicode="D" horiz-adv-x="648" 
d="M289 46q124 0 188.5 61.5t64.5 201.5q0 135 -63.5 195t-185.5 60h-159v-518h155zM82 0v610h213q147 0 223 -77t76 -224q0 -153 -77 -231t-226 -78h-209z" />
    <glyph glyph-name="E" unicode="E" horiz-adv-x="510" 
d="M80 0v610h374v-46h-322v-231h294v-46h-294v-241h322v-46h-374z" />
    <glyph glyph-name="F" unicode="F" horiz-adv-x="496" 
d="M134 258v-258h-52v610h374v-46h-322v-260h302v-46h-302z" />
    <glyph glyph-name="G" unicode="G" horiz-adv-x="656" 
d="M536 304h52v-268q-39 -20 -93 -33t-120 -13q-69 0 -127.5 21.5t-101.5 62t-67.5 99t-24.5 132.5t25 132.5t69 99t104.5 62t131.5 21.5q69 0 112.5 -12t72.5 -27v-50q-38 22 -82.5 32t-102.5 10q-61 0 -112 -17.5t-88 -51.5t-57.5 -84t-20.5 -115t20 -115t55.5 -84
t85 -51.5t108.5 -17.5q52 0 89.5 8t71.5 21v238z" />
    <glyph glyph-name="H" unicode="H" horiz-adv-x="658" 
d="M526 0v287h-394v-287h-52v610h52v-277h394v277h52v-610h-52z" />
    <glyph glyph-name="I" unicode="I" horiz-adv-x="216" 
d="M82 0v610h52v-610h-52z" />
    <glyph glyph-name="J" unicode="J" horiz-adv-x="350" 
d="M218 610h52v-442q0 -95 -40.5 -135.5t-119.5 -40.5q-17 0 -40 2.5t-40 7.5v46q14 -5 33 -8t47 -3q25 0 45 5.5t34 20.5t21.5 41.5t7.5 68.5v437z" />
    <glyph glyph-name="K" unicode="K" horiz-adv-x="510" 
d="M424 0l-290 319v-319h-52v610h52v-276l283 276h60l-290 -283l297 -327h-60z" />
    <glyph glyph-name="L" unicode="L" horiz-adv-x="468" 
d="M82 0v610h52v-564h306v-46h-358z" />
    <glyph glyph-name="M" unicode="M" horiz-adv-x="808" 
d="M694 0l-32 358l-12 184h-2l-65 -173l-152 -369h-54l-152 369l-65 173h-2l-12 -184l-32 -358h-52l58 610h57l176 -426l50 -136h2l50 136l176 426h57l58 -610h-52z" />
    <glyph glyph-name="N" unicode="N" horiz-adv-x="664" 
d="M532 0l-307 408q-28 37 -52.5 71.5t-44.5 67.5h-2q5 -43 5.5 -87.5t0.5 -89.5v-370h-52v610h52l307 -408q28 -37 52.5 -71.5t44.5 -67.5h2q-2 49 -4 90.5t-2 86.5v370h52v-610h-52z" />
    <glyph glyph-name="O" unicode="O" horiz-adv-x="746" 
d="M373 37q58 0 107 17.5t84.5 51.5t55.5 84t20 115t-20 115t-55.5 84t-84.5 51.5t-107 17.5t-107 -17.5t-84.5 -51.5t-55.5 -84t-20 -115t20 -115t55.5 -84t84.5 -51.5t107 -17.5zM692 305q0 -74 -24.5 -132.5t-67.5 -99t-101.5 -62t-125.5 -21.5q-68 0 -126 21.5t-101 62
t-67.5 99t-24.5 132.5t24.5 132.5t67.5 99t101 62t126 21.5q67 0 125.5 -21.5t101.5 -62t67.5 -99t24.5 -132.5z" />
    <glyph glyph-name="P" unicode="P" horiz-adv-x="570" 
d="M301 280q87 0 129 32t42 110t-42 110t-129 32h-167v-284h167zM82 0v610h219q108 0 165.5 -44.5t57.5 -143.5t-57.5 -143.5t-165.5 -44.5h-167v-234h-52z" />
    <glyph glyph-name="Q" unicode="Q" horiz-adv-x="746" 
d="M670 -151q-17 -3 -33 -4t-31 -1q-78 0 -134.5 34.5t-98.5 112.5q-68 0 -126 21.5t-101 62t-67.5 98.5t-24.5 132t24.5 132.5t67.5 99t101 62t126 21.5q67 0 125.5 -21.5t101.5 -62t67.5 -99t24.5 -132.5q0 -68 -21 -122.5t-57.5 -94t-87 -63.5t-109.5 -31
q29 -51 75.5 -77.5t116.5 -26.5q15 0 30 1.5t31 6.5v-49zM373 37q58 0 107 17.5t84.5 51.5t55.5 84t20 115t-20 115t-55.5 84t-84.5 51.5t-107 17.5t-107 -17.5t-84.5 -51.5t-55.5 -84t-20 -115t20 -115t55.5 -84t84.5 -51.5t107 -17.5z" />
    <glyph glyph-name="R" unicode="R" horiz-adv-x="582" 
d="M491 0l-55 174q-7 22 -17 39.5t-25.5 29.5t-39 18.5t-58.5 6.5h-162v-268h-52v610h214q109 0 166.5 -40t57.5 -125q0 -69 -36.5 -107t-90.5 -48v-2q31 -9 55.5 -32t38.5 -71l57 -185h-53zM293 315q87 0 131 29t44 101q0 35 -11.5 58t-33.5 36.5t-54.5 19t-75.5 5.5h-159
v-249h159z" />
    <glyph glyph-name="S" unicode="S" horiz-adv-x="512" 
d="M48 81q40 -19 85.5 -32.5t108.5 -13.5q32 0 62 4.5t53 17.5t37 34.5t14 56.5q0 30 -15 51.5t-39.5 38t-56 30.5t-65.5 29q-29 13 -60.5 28t-57.5 35.5t-43 48t-17 65.5q0 76 54.5 111t147.5 35q51 0 92.5 -10t69.5 -21v-46q-34 14 -73.5 23t-85.5 9q-75 0 -114.5 -22
t-39.5 -79q0 -28 13.5 -47.5t36.5 -35t53 -29t62 -28.5q30 -14 63.5 -29.5t61.5 -36.5t46.5 -50t18.5 -70t-16 -71t-45 -49.5t-68.5 -28.5t-85.5 -9q-66 0 -115 13.5t-82 31.5v46z" />
    <glyph glyph-name="T" unicode="T" horiz-adv-x="554" 
d="M251 0v565l-223 -1v46h498v-46l-223 1v-565h-52z" />
    <glyph glyph-name="U" unicode="U" horiz-adv-x="684" 
d="M555 610h52v-350q0 -149 -69 -212q-34 -31 -83.5 -44.5t-112.5 -13.5t-111.5 13.5t-82.5 44.5q-35 32 -53 84.5t-18 127.5v350h52v-345q0 -63 13 -106.5t39.5 -70.5t66.5 -39.5t94 -12.5t94 12.5t66.5 39.5t39.5 70.5t13 106.5v345z" />
    <glyph glyph-name="V" unicode="V" horiz-adv-x="608" 
d="M278 0l-256 610h52l178 -426l51 -136h2l51 137l178 425h52l-256 -610h-52z" />
    <glyph glyph-name="W" unicode="W" horiz-adv-x="946" 
d="M658 0l-147 422l-37 138h-2l-38 -139l-146 -421h-54l-208 610h54l135 -398l45 -162h2l46 162l138 398h54l138 -398l46 -162h2l45 162l135 398h54l-208 -610h-54z" />
    <glyph glyph-name="X" unicode="X" horiz-adv-x="616" 
d="M533 0l-225 278l-225 -278h-59l254 312l-242 298h59l213 -264l213 264h59l-243 -298l255 -312h-59z" />
    <glyph glyph-name="Y" unicode="Y" horiz-adv-x="602" 
d="M275 0v236l-251 374h54l142 -213l79 -126h4l79 126l142 213h54l-251 -374v-236h-52z" />
    <glyph glyph-name="Z" unicode="Z" horiz-adv-x="556" 
d="M48 0v40l380 526l-367 -2v46h427v-40l-380 -525l396 1v-46h-456z" />
    <glyph glyph-name="bracketleft" unicode="[" horiz-adv-x="262" 
d="M98 -136v798h134v-42h-86v-714h86v-42h-134z" />
    <glyph glyph-name="backslash" unicode="\" horiz-adv-x="456" 
d="M390 -40l-376 690h52l376 -690h-52z" />
    <glyph glyph-name="bracketright" unicode="]" horiz-adv-x="262" 
d="M30 -136v42h86v714h-86v42h134v-798h-134z" />
    <glyph glyph-name="asciicircum" unicode="^" horiz-adv-x="508" 
d="M415 252l-161 316l-161 -316h-43l183 358h42l183 -358h-43z" />
    <glyph glyph-name="underscore" unicode="_" horiz-adv-x="350" 
d="M0 -94v33h350v-33h-350z" />
    <glyph glyph-name="grave" unicode="`" horiz-adv-x="300" 
d="M183 512l-105 138h64l78 -138h-37z" />
    <glyph glyph-name="a" unicode="a" horiz-adv-x="516" 
d="M393 214q-31 8 -70 15t-77 7q-149 0 -149 -106q0 -51 32 -74.5t89 -23.5q34 0 61 8t48 22.5t37 34t29 43.5v74zM400 0l-6 84h-2q-10 -18 -25.5 -34.5t-37.5 -30t-50 -21.5t-63 -8q-78 0 -123 35.5t-45 104.5q0 72 51.5 110t139.5 38q48 0 88 -8t66 -16v42q0 61 -36 92.5
t-102 31.5q-51 0 -91 -10.5t-75 -27.5v44q32 15 72.5 25.5t94.5 10.5q40 0 74.5 -9.5t59 -30.5t38.5 -53.5t14 -77.5v-291h-42z" />
    <glyph glyph-name="b" unicode="b" horiz-adv-x="554" 
d="M78 0v650h50v-282h2q13 18 30.5 35t39.5 30t49 21t59 8q97 0 145.5 -63.5t48.5 -168.5q0 -63 -15 -108t-40.5 -74.5t-60.5 -43.5t-75 -14q-64 0 -108.5 24.5t-74.5 69.5h-2l-6 -84h-42zM128 138q24 -42 70.5 -73t106.5 -31q29 0 55.5 11t47 35t32.5 61t12 89
q0 41 -8.5 75.5t-27 59.5t-47 39t-68.5 14q-57 0 -100 -29t-73 -72v-179z" />
    <glyph glyph-name="c" unicode="c" horiz-adv-x="489" 
d="M441 24q-29 -17 -63.5 -25.5t-85.5 -8.5q-56 0 -100.5 18.5t-76 50t-48.5 74.5t-17 93q0 49 17 92.5t48.5 75t76 50t98.5 18.5q51 0 85 -10t62 -25v-44q-30 18 -66 27.5t-81 9.5q-43 0 -78 -15t-60 -41t-38.5 -61.5t-13.5 -76.5t13.5 -76.5t39 -61.5t60.5 -41t79 -15
q42 0 78.5 8.5t70.5 28.5v-45z" />
    <glyph glyph-name="d" unicode="d" horiz-adv-x="554" 
d="M434 0l-6 84h-2q-21 -37 -61.5 -65.5t-100.5 -28.5q-42 0 -80.5 13.5t-67.5 42.5t-46.5 74t-17.5 108q0 52 14.5 95.5t42 74t66.5 47.5t89 17q30 0 54.5 -7.5t44.5 -19t35 -26t26 -29.5h2v270h50v-650h-42zM426 327q-26 39 -65.5 65t-96.5 26q-40 0 -70 -14t-50.5 -39.5
t-31 -60.5t-10.5 -76q0 -52 14 -89t36.5 -60t52 -34t61.5 -11q59 0 97.5 31t62.5 73v189z" />
    <glyph glyph-name="e" unicode="e" horiz-adv-x="528" 
d="M455 31q-73 -41 -160 -41q-59 0 -105 17.5t-77 49t-47 75t-16 94.5q0 50 15 93.5t44 75t71.5 49.5t98.5 18q94 0 148.5 -53.5t54.5 -158.5q0 -8 -2 -19.5t-4 -22.5h-376q5 -78 55 -127t140 -49q77 0 160 46v-47zM434 248q0 90 -42.5 131t-112.5 41q-41 0 -72.5 -13
t-54 -36.5t-35.5 -55t-16 -67.5h333z" />
    <glyph glyph-name="f" unicode="f" horiz-adv-x="354" 
d="M112 0v408h-86v42h86v47q0 163 150 163q23 0 44.5 -4.5t33.5 -9.5v-44q-14 5 -32.5 9.5t-42.5 4.5q-57 0 -80 -28t-23 -95v-43h159v-42h-159v-408h-50z" />
    <glyph glyph-name="g" unicode="g" horiz-adv-x="552" 
d="M426 317q-26 42 -66 71.5t-97 29.5q-40 0 -70 -14t-50.5 -39.5t-30.5 -60.5t-10 -76q0 -52 13.5 -89t36.5 -60t52 -34t61 -11q59 0 98 31t63 73v179zM428 84h-2q-21 -37 -62 -65.5t-101 -28.5q-42 0 -80 13.5t-67.5 42.5t-46.5 74t-17 108q0 52 14.5 95.5t41.5 74
t66 47.5t89 17q30 0 55 -8.5t45.5 -21.5t36 -29.5t25.5 -32.5h2l6 80h43v-455q0 -59 -16.5 -98t-46 -62.5t-70 -33.5t-87.5 -10q-54 0 -96 11.5t-74 27.5v44q35 -18 77.5 -29.5t96.5 -11.5q39 0 70.5 7.5t53 26t33 49t11.5 76.5v92z" />
    <glyph glyph-name="h" unicode="h" horiz-adv-x="572" 
d="M448 0v279q0 72 -32 105.5t-92 33.5q-64 0 -111 -29.5t-85 -71.5v-317h-50v650h50v-282q15 16 35 32.5t45.5 30t55.5 22.5t65 9q37 0 68 -11t53.5 -33t35 -54.5t12.5 -75.5v-288h-50z" />
    <glyph glyph-name="i" unicode="i" horiz-adv-x="206" 
d="M78 0v450h50v-450h-50zM145 580q0 -17 -10.5 -28.5t-31.5 -11.5t-31.5 11.5t-10.5 28.5t10.5 28.5t31.5 11.5t31.5 -11.5t10.5 -28.5z" />
    <glyph glyph-name="j" unicode="j" horiz-adv-x="216" 
d="M155 580q0 -17 -10.5 -28.5t-31.5 -11.5t-31.5 11.5t-10.5 28.5t10.5 28.5t31.5 11.5t31.5 -11.5t10.5 -28.5zM88 450h50v-559q0 -23 -4.5 -43.5t-16 -36t-31 -25t-50.5 -9.5q-15 0 -32 2.5t-30 5.5v34h44q40 0 55 17t15 59v555z" />
    <glyph glyph-name="k" unicode="k" horiz-adv-x="452" 
d="M369 0l-241 241v-241h-50v650h50v-400l222 200h62l-228 -203l246 -247h-61z" />
    <glyph glyph-name="l" unicode="l" horiz-adv-x="206" 
d="M78 0v650h50v-650h-50z" />
    <glyph glyph-name="m" unicode="m" horiz-adv-x="846" 
d="M722 0v291q0 63 -22 94t-80 31q-54 0 -95.5 -27.5t-76.5 -72.5q0 -5 0.5 -10.5t0.5 -11.5v-294h-50v291q0 63 -22 94t-80 31q-55 0 -96.5 -27.5t-74.5 -72.5v-316h-50v450h43l6 -84h2q12 18 29.5 35t40 30t49 21t55.5 8q113 0 140 -100q13 19 32.5 37t43 32t51 22.5
t56.5 8.5q72 0 110 -42t38 -124v-294h-50z" />
    <glyph glyph-name="n" unicode="n" horiz-adv-x="568" 
d="M444 0v279q0 72 -30.5 105.5t-90.5 33.5q-32 0 -59.5 -8.5t-51.5 -22.5t-45.5 -32.5t-40.5 -39.5v-315h-50v450h43l6 -84h2q15 15 35 32t45 31t55.5 23.5t65.5 9.5q74 0 120 -43.5t46 -130.5v-288h-50z" />
    <glyph glyph-name="o" unicode="o" horiz-adv-x="580" 
d="M530 226q0 -50 -17 -93t-48.5 -74.5t-76 -50t-98.5 -18.5t-98.5 18.5t-76 50t-48.5 74.5t-17 93q0 49 17 92.5t48.5 75t76 50t98.5 18.5t98.5 -18.5t76 -50t48.5 -75t17 -92.5zM290 32q43 0 78 15t60 41t38.5 61.5t13.5 76.5t-13.5 76.5t-38.5 61.5t-60 41t-78 15
t-78 -15t-60 -41t-38.5 -61.5t-13.5 -76.5t13.5 -76.5t38.5 -61.5t60 -41t78 -15z" />
    <glyph glyph-name="p" unicode="p" horiz-adv-x="552" 
d="M76 -215v665h43l6 -84h2q13 18 30.5 35t40 30.5t49.5 22t59 8.5q97 0 145.5 -63.5t48.5 -168.5q0 -63 -15 -108t-40.5 -74.5t-60.5 -43.5t-75 -14q-64 0 -108.5 24.5t-74.5 69.5h-2l2 -84v-215h-50zM126 138q24 -42 70.5 -73t106.5 -31q29 0 55.5 11t47 35t32.5 61t12 89
q0 41 -8.5 75.5t-27 59.5t-47 39t-68.5 14q-57 0 -100 -30t-73 -73v-177z" />
    <glyph glyph-name="q" unicode="q" horiz-adv-x="552" 
d="M426 -215v215l2 84h-2q-21 -37 -61.5 -65.5t-100.5 -28.5q-42 0 -80.5 13.5t-67.5 42.5t-46.5 74t-17.5 108q0 52 14.5 95.5t42 74t66.5 47.5t89 17q33 0 58.5 -8.5t45 -21.5t33.5 -28.5t25 -30.5h2l5 77h43v-665h-50zM426 320q-13 19 -29 36.5t-36 31t-44 22t-53 8.5
q-40 0 -70 -14t-50.5 -39.5t-31 -60.5t-10.5 -76q0 -52 14 -89t36.5 -60t52 -34t61.5 -11q59 0 97.5 31t62.5 73v182z" />
    <glyph glyph-name="r" unicode="r" horiz-adv-x="368" 
d="M76 0v450h43l6 -114h2q12 21 28 42.5t37.5 38.5t48.5 27.5t61 10.5q8 0 20 -1t20 -3v-52q-8 2 -19.5 3.5t-21.5 1.5q-33 0 -59.5 -10.5t-48 -28t-38 -40t-29.5 -46.5v-279h-50z" />
    <glyph glyph-name="s" unicode="s" horiz-adv-x="414" 
d="M44 62q27 -11 65 -20t84 -9q63 0 95 17t32 56q0 23 -7.5 38t-23 26t-40 20.5t-58.5 21.5q-28 10 -54 21t-46 26.5t-32 37t-12 52.5q0 54 39 83.5t124 29.5q42 0 73 -8.5t55 -20.5v-43q-20 11 -51 20t-73 9q-119 0 -119 -70q0 -21 9 -35.5t25 -25.5t38 -20t48 -18
q27 -10 54.5 -21t49.5 -26.5t35.5 -38.5t13.5 -58q0 -31 -12.5 -53t-35.5 -36t-54.5 -20.5t-70.5 -6.5q-45 0 -85.5 9t-65.5 20v43z" />
    <glyph glyph-name="t" unicode="t" horiz-adv-x="382" 
d="M346 8q-16 -7 -38.5 -12.5t-57.5 -5.5q-75 0 -106.5 36.5t-31.5 117.5v264h-86v42h86l12 142h38v-142h179v-42h-179v-257q0 -65 21 -91.5t72 -26.5q53 0 91 18v-43z" />
    <glyph glyph-name="u" unicode="u" horiz-adv-x="554" 
d="M435 0l-6 84h-2q-14 -18 -31 -35t-39 -30.5t-50 -22t-64 -8.5q-37 0 -68 10t-53.5 30t-35 51t-12.5 73v298h50v-289q0 -69 31 -99t89 -30q33 0 61 9t50.5 23.5t40.5 33.5t32 39v313h50v-450h-43z" />
    <glyph glyph-name="v" unicode="v" horiz-adv-x="480" 
d="M215 0l-191 450h52l105 -251l58 -153h2l58 153l105 251h52l-191 -450h-50z" />
    <glyph glyph-name="w" unicode="w" horiz-adv-x="746" 
d="M512 0l-105 287l-33 117h-2l-33 -117l-105 -287h-50l-156 450h50l97 -281l33 -123h2l35 123l103 281h50l102 -281l35 -123h2l33 123l98 281h50l-156 -450h-50z" />
    <glyph glyph-name="x" unicode="x" horiz-adv-x="492" 
d="M411 0l-165 200l-165 -200h-59l194 231l-184 219h59l155 -188l155 188h59l-185 -219l195 -231h-59z" />
    <glyph glyph-name="y" unicode="y" horiz-adv-x="490" 
d="M224 1l-202 449h50l114 -253l62 -153h2l59 155l105 251h52l-242 -570q-11 -26 -21.5 -45t-24 -32t-31.5 -19.5t-45 -6.5q-22 0 -38.5 5t-29.5 11v43q11 -6 27 -11.5t42 -5.5q31 0 46 17.5t31 55.5z" />
    <glyph glyph-name="z" unicode="z" horiz-adv-x="452" 
d="M40 0v38l291 367l-277 -1v46h342v-38l-292 -367l306 1v-46h-370z" />
    <glyph glyph-name="braceleft" unicode="{" horiz-adv-x="262" 
d="M246 -125q-7 -3 -17 -5.5t-23 -2.5q-45 0 -69 29.5t-24 71.5v182q0 54 -20.5 75t-52.5 22v34q32 1 52.5 22t20.5 75v182q0 42 24 71.5t69 29.5q13 0 23 -2.5t17 -5.5v-37q-20 6 -35 6q-26 0 -38 -14.5t-12 -60.5v-173q0 -50 -20.5 -74t-50.5 -36q30 -12 50.5 -36
t20.5 -74v-173q0 -23 3 -38t9 -23t15.5 -11t22.5 -3q15 0 35 6v-37z" />
    <glyph glyph-name="bar" unicode="|" horiz-adv-x="232" 
d="M92 -215v865h48v-865h-48z" />
    <glyph glyph-name="braceright" unicode="}" horiz-adv-x="262" 
d="M16 -88q19 -6 35 -6q13 0 22.5 3t15.5 11t9 23t3 38v173q0 50 20.5 74t50.5 36q-30 12 -50.5 36t-20.5 74v173q0 46 -12 60.5t-38 14.5q-16 0 -35 -6v37q7 3 17 5.5t23 2.5q45 0 69 -29.5t24 -71.5v-182q0 -54 20.5 -75t52.5 -22v-34q-32 -1 -52.5 -22t-20.5 -75v-182
q0 -42 -24 -71.5t-69 -29.5q-13 0 -23 2.5t-17 5.5v37z" />
    <glyph glyph-name="asciitilde" unicode="~" horiz-adv-x="456" 
d="M404 309q-53 -44 -98 -44q-26 0 -45 9t-36.5 20t-35.5 20t-40 9q-28 0 -49.5 -13.5t-47.5 -37.5v48q17 14 40.5 28.5t56.5 14.5q26 0 45.5 -9t37 -19.5t35.5 -19.5t40 -9q47 0 97 51v-48z" />
    <glyph glyph-name="uni007F" horiz-adv-x="450" 
 />
    <glyph glyph-name="nonbreakingspace" unicode="&#xa0;" horiz-adv-x="259" 
 />
    <glyph glyph-name="exclamdown" unicode="&#xa1;" horiz-adv-x="222" 
d="M84 -160l10 400h34l10 -400h-54zM157 413q0 -20 -13.5 -31.5t-32.5 -11.5t-32.5 11.5t-13.5 31.5t13.5 31.5t32.5 11.5t32.5 -11.5t13.5 -31.5z" />
    <glyph glyph-name="cent" unicode="&#xa2;" horiz-adv-x="600" 
d="M325 -100v92q-55 4 -97.5 24t-72 51.5t-44.5 72t-15 86.5t15.5 87t44.5 72t72 50.5t97 24.5v90h46v-88q45 -2 81 -13t62 -25v-44q-30 18 -71 29t-86 11q-50 0 -89.5 -15t-66.5 -41t-41 -61.5t-14 -76.5t14 -76.5t41.5 -61.5t67 -41t90.5 -15q42 0 83.5 10t75.5 30v-45
q-57 -33 -147 -37v-90h-46z" />
    <glyph glyph-name="sterling" unicode="&#xa3;" horiz-adv-x="600" 
d="M90 0v38q33 29 59.5 67.5t26.5 81.5v144h-86v42h86v64q0 40 15 73.5t42 58t65.5 38t85.5 13.5q38 0 71.5 -7.5t52.5 -16.5v-44q-20 9 -51.5 16.5t-69.5 7.5q-75 0 -118 -38t-43 -105v-60h189v-42h-189v-134q0 -51 -22 -89t-54 -64h374v-44h-434z" />
    <glyph glyph-name="currency" unicode="&#xa4;" horiz-adv-x="554" 
d="M398 154q-51 -42 -121 -42t-121 42l-62 -62l-30 30l62 62q-20 25 -31.5 56t-11.5 66q0 70 42 121l-61 61l30 30l61 -61q25 20 56 31.5t66 11.5t65.5 -11.5t56.5 -31.5l61 61l30 -30l-61 -61q42 -51 42 -121q0 -35 -11.5 -66t-31.5 -56l62 -62l-30 -30zM277 148
q32 0 60.5 12.5t49.5 34t33.5 50.5t12.5 61t-12.5 61t-33.5 50.5t-49.5 34t-60.5 12.5t-60.5 -12.5t-49.5 -34t-33.5 -50.5t-12.5 -61t12.5 -61t33.5 -50.5t49.5 -34t60.5 -12.5z" />
    <glyph glyph-name="yen" unicode="&#xa5;" horiz-adv-x="600" 
d="M274 0v157h-156v42h156v63h-156v42h130l-195 306h54l120 -195l71 -116h4l71 116l120 195h54l-196 -306h131v-42h-156v-63h156v-42h-156v-157h-52z" />
    <glyph glyph-name="brokenbar" unicode="&#xa6;" horiz-adv-x="246" 
d="M98 296v354h50v-354h-50zM98 -215v354h50v-354h-50z" />
    <glyph glyph-name="section" unicode="&#xa7;" horiz-adv-x="600" 
d="M129 -151q31 -11 62.5 -18t70.5 -7q32 0 60.5 5.5t49.5 16t33 26.5t12 37q0 25 -11 43.5t-30.5 33.5t-46.5 28t-58 26t-65 29t-62.5 37.5t-47 51.5t-18.5 71q0 51 34.5 96t94.5 74q-31 23 -53 53t-22 75q0 33 15 57.5t40.5 40.5t60 24t73.5 8t79 -5t67 -14v-51
q-32 10 -66 17t-79 7q-63 0 -102 -21.5t-39 -63.5q0 -24 13 -42.5t34 -34t47.5 -28.5t54.5 -25q29 -13 63 -29.5t62.5 -38t47.5 -50.5t19 -67q0 -29 -12.5 -55t-32 -48.5t-42.5 -41t-45 -32.5q43 -30 60 -61.5t17 -64.5t-17 -57.5t-44.5 -40.5t-63.5 -24t-75 -8
q-84 0 -138 19v52zM348 56q18 13 40 29.5t40.5 36t31 41t12.5 45.5q0 31 -17 54t-44 41t-59 32t-62 27l-39 17q-57 -26 -90.5 -64t-33.5 -86q0 -30 17.5 -53.5t44 -41.5t58.5 -32.5t62 -27.5z" />
    <glyph glyph-name="dieresis" unicode="&#xa8;" horiz-adv-x="300" 
d="M84 580q0 -17 -10.5 -28.5t-31.5 -11.5t-31.5 11.5t-10.5 28.5t10.5 28.5t31.5 11.5t31.5 -11.5t10.5 -28.5zM300 580q0 -17 -10.5 -28.5t-31.5 -11.5t-31.5 11.5t-10.5 28.5t10.5 28.5t31.5 11.5t31.5 -11.5t10.5 -28.5z" />
    <glyph glyph-name="copyright" unicode="&#xa9;" horiz-adv-x="731" 
d="M680 303q0 -66 -24 -122.5t-66.5 -98t-100 -65t-124.5 -23.5t-124.5 23.5t-100 65t-66.5 98t-24 122.5t24 122.5t66.5 98t100 65t124.5 23.5t124.5 -23.5t100 -65t66.5 -98t24 -122.5zM641 303q0 60 -20.5 110t-57 86t-87.5 56.5t-111 20.5t-111 -20.5t-87.5 -56.5
t-57 -86t-20.5 -110t20.5 -110t57 -86t87.5 -56.5t111 -20.5t111 20.5t87.5 56.5t57 86t20.5 110zM498 142q-23 -14 -51 -22.5t-70 -8.5q-45 0 -81 15t-62 40.5t-40 60.5t-14 75t14 75t39.5 61t62 40.5t80.5 14.5q40 0 68 -9t51 -23v-39q-24 14 -53 24t-66 10
q-35 0 -63 -11.5t-48 -32t-30.5 -49t-10.5 -61.5t10.5 -61t30.5 -49t48.5 -32.5t63.5 -11.5q33 0 63.5 8t57.5 26v-40z" />
    <glyph glyph-name="ordfeminine" unicode="&#xaa;" horiz-adv-x="393" 
d="M290 435q-23 6 -50.5 11t-53.5 5q-51 0 -78 -18.5t-27 -55.5q0 -32 23 -49.5t61 -17.5q46 0 76.5 21.5t48.5 54.5v49zM293 280l-5 53h-1q-17 -22 -47.5 -41t-75.5 -19q-58 0 -92 26.5t-34 77.5q0 54 38 82.5t104 28.5q32 0 60 -5t48 -10v24q0 45 -26 65.5t-71 20.5
q-35 0 -65.5 -7t-57.5 -20v39q24 12 54.5 18.5t69.5 6.5q60 0 99.5 -30t39.5 -97v-213h-38z" />
    <glyph glyph-name="guillemotleft" unicode="&#xab;" horiz-adv-x="418" 
d="M165 64l-139 206l139 209h49l-140 -208l140 -207h-49zM323 64l-139 206l139 209h49l-140 -208l140 -207h-49z" />
    <glyph glyph-name="logicalnot" unicode="&#xac;" horiz-adv-x="535" 
d="M417 180v203h-353v47h401v-250h-48z" />
    <glyph glyph-name="hypen" unicode="&#xad;" horiz-adv-x="316" 
d="M36 284v44h244v-44h-244z" />
    <glyph glyph-name="registered" unicode="&#xae;" horiz-adv-x="730" 
d="M680 303q0 -66 -24 -122.5t-66.5 -98t-100 -65t-124.5 -23.5t-124.5 23.5t-100 65t-66.5 98t-24 122.5t24 122.5t66.5 98t100 65t124.5 23.5t124.5 -23.5t100 -65t66.5 -98t24 -122.5zM641 303q0 60 -20.5 110t-57 86t-87.5 56.5t-111 20.5t-111 -20.5t-87.5 -56.5
t-57 -86t-20.5 -110t20.5 -110t57 -86t87.5 -56.5t111 -20.5t111 20.5t87.5 56.5t57 86t20.5 110zM477 125l-31 105q-4 13 -8.5 22.5t-13 15.5t-21.5 9t-34 3h-83v-155h-44v364h135q66 0 97 -25t31 -73q0 -40 -21.5 -61.5t-48.5 -30.5v-1q23 -8 33.5 -21t18.5 -40l33 -112
h-43zM376 320q37 0 61 15t24 56q0 33 -17.5 47t-68.5 14h-89v-132h90z" />
    <glyph glyph-name="macron" unicode="&#xaf;" horiz-adv-x="300" 
d="M18 538v42h264v-42h-264z" />
    <glyph glyph-name="degree" unicode="&#xb0;" horiz-adv-x="320" 
d="M280 546q0 -49 -33 -81.5t-87 -32.5t-87 32.5t-33 81.5t33 81.5t87 32.5t87 -32.5t33 -81.5zM242 546q0 36 -22.5 58t-59.5 22t-59.5 -22t-22.5 -58t22.5 -58t59.5 -22t59.5 22t22.5 58z" />
    <glyph glyph-name="plusminus" unicode="&#xb1;" horiz-adv-x="514" 
d="M233 84v202h-193v44h193v202h48v-202h193v-44h-193v-202h-48zM40 0v40h434v-40h-434z" />
    <glyph glyph-name="twosuperior" unicode="&#xb2;" horiz-adv-x="367" 
d="M46 287v28q103 60 157.5 117t54.5 114q0 36 -25 58t-76 22q-27 0 -54.5 -7t-45.5 -15v34q14 7 42 14t60 7q36 0 61.5 -9t42 -25t24.5 -36.5t8 -43.5q0 -33 -14.5 -63.5t-39.5 -59t-58 -54t-70 -48.5h188v-33h-255z" />
    <glyph glyph-name="threesuperior" unicode="&#xb3;" horiz-adv-x="353" 
d="M44 338q23 -10 52.5 -17t63.5 -7q18 0 35.5 3.5t30.5 11.5t21 22.5t8 36.5t-10.5 36t-28.5 22t-42.5 11.5t-52.5 3.5v32q57 -2 90 14.5t33 58.5q0 60 -85 60q-26 0 -56.5 -7.5t-50.5 -16.5v34q17 8 46.5 15.5t61.5 7.5q24 0 45.5 -5t38 -16.5t26.5 -29.5t10 -43
q0 -35 -19.5 -55.5t-45.5 -31.5q32 -8 55 -30.5t23 -60.5q0 -29 -10 -49t-27.5 -32.5t-41.5 -18.5t-51 -6q-35 0 -66.5 6.5t-52.5 15.5v35z" />
    <glyph glyph-name="acute" unicode="&#xb4;" horiz-adv-x="300" 
d="M80 512l78 138h64l-105 -138h-37z" />
    <glyph glyph-name="mu" unicode="&#xb5;" horiz-adv-x="554" 
d="M76 -215v665h50v-313q14 -20 32 -39t40.5 -33.5t50.5 -23.5t61 -9q58 0 89 30t31 99v289h50v-298q0 -42 -12.5 -73t-35 -51t-53.5 -30t-68 -10q-36 0 -64 8.5t-50 22t-39 30.5t-31 35h-2l1 -84v-215h-50z" />
    <glyph glyph-name="paragraph" unicode="&#xb6;" horiz-adv-x="537" 
d="M397 -215v805h-89v-805h-50v454h-2q-45 0 -84.5 16t-68.5 44t-46 65.5t-17 80.5q0 42 17 79.5t46 65.5t68.5 44t84.5 16h191v-865h-50z" />
    <glyph glyph-name="periodcentered" unicode="&#xb7;" horiz-adv-x="212" 
d="M152 291q0 -20 -13 -32.5t-33 -12.5t-33 12.5t-13 32.5t13 32.5t33 12.5t33 -12.5t13 -32.5z" />
    <glyph glyph-name="cedilla" unicode="&#xb8;" horiz-adv-x="300" 
d="M103 -145q11 -3 25.5 -5.5t38.5 -2.5q23 0 38.5 7.5t15.5 30.5q0 26 -26.5 35t-68.5 11l14 76l32 -3l-4 -46q19 -1 37 -5t31.5 -13t22 -23.5t8.5 -36.5q0 -21 -9.5 -35t-24 -22.5t-32.5 -12t-34 -3.5q-23 0 -38 3t-26 6v39z" />
    <glyph glyph-name="onesuperior" unicode="&#xb9;" horiz-adv-x="254" 
d="M123 287v320q-17 -23 -41 -30.5t-56 -6.5v33q32 -2 56.5 9.5t44.5 40.5h33v-366h-37z" />
    <glyph glyph-name="ordmasculine" unicode="&#xba;" horiz-adv-x="421" 
d="M387 447q0 -36 -12.5 -68t-35.5 -55.5t-55.5 -37t-72.5 -13.5t-72.5 13.5t-56 37t-36 55.5t-12.5 68t12.5 67.5t36 55t56 37t72.5 13.5t72.5 -13.5t55.5 -37t35.5 -55t12.5 -67.5zM211 311q30 0 54 10.5t41 29t26.5 43t9.5 53.5q0 28 -9.5 52.5t-26.5 43t-41 29t-54 10.5
t-54.5 -10.5t-42 -29t-27 -43t-9.5 -52.5q0 -29 9.5 -53.5t27 -43t42 -29t54.5 -10.5z" />
    <glyph glyph-name="guillemotright" unicode="&#xbb;" horiz-adv-x="418" 
d="M204 64l140 207l-140 208h49l139 -209l-139 -206h-49zM46 64l140 207l-140 208h49l139 -209l-139 -206h-49z" />
    <glyph glyph-name="onequarter" unicode="&#xbc;" horiz-adv-x="728" 
d="M112 0l458 610h46l-456 -610h-48zM605 0v77h-201v29l200 260h38v-256h60v-33h-60v-77h-37zM605 315l-156 -205h156v205zM159 244v320q-17 -23 -41 -30.5t-56 -6.5v33q32 -2 56.5 9.5t44.5 40.5h33v-366h-37z" />
    <glyph glyph-name="onehalf" unicode="&#xbd;" horiz-adv-x="728" 
d="M92 0l458 610h46l-456 -610h-48zM433 0v28q103 60 157.5 117t54.5 114q0 36 -25 58t-76 22q-27 0 -54.5 -7t-45.5 -15v34q14 7 42 14t60 7q36 0 61.5 -9t42 -25t24.5 -36.5t8 -43.5q0 -33 -14.5 -63.5t-39.5 -59t-58 -54t-70 -48.5h188v-33h-255zM159 244v320
q-17 -23 -41 -30.5t-56 -6.5v33q32 -2 56.5 9.5t44.5 40.5h33v-366h-37z" />
    <glyph glyph-name="threequarters" unicode="&#xbe;" horiz-adv-x="728" 
d="M190 0h-48l458 610h46zM605 0v77h-201v29l200 260h38v-256h60v-33h-60v-77h-37zM605 315l-156 -205h156v205zM44 293q23 -10 52.5 -17t63.5 -7q18 0 35.5 3.5t30.5 11.5t21 22.5t8 36.5t-10.5 36t-28.5 22t-42.5 11.5t-52.5 3.5v32q57 -2 90 14.5t33 58.5q0 60 -85 60
q-26 0 -56.5 -7.5t-50.5 -16.5v34q17 8 46.5 15.5t61.5 7.5q24 0 45.5 -5t38 -16.5t26.5 -29.5t10 -43q0 -35 -19.5 -55.5t-45.5 -31.5q32 -8 55 -30.5t23 -60.5q0 -29 -10 -49t-27.5 -32.5t-41.5 -18.5t-51 -6q-35 0 -66.5 6.5t-52.5 15.5v35z" />
    <glyph glyph-name="questiondown" unicode="&#xbf;" horiz-adv-x="424" 
d="M390 -135q-25 -12 -68.5 -23.5t-98.5 -11.5q-73 0 -119 38t-46 115q0 40 15 76t38.5 68t52 60.5t55.5 52.5h50q-28 -24 -56.5 -54t-52 -63.5t-38 -69t-14.5 -69.5q0 -110 119 -110q51 0 92.5 11.5t70.5 25.5v-46zM295 413q0 -20 -13.5 -31.5t-32.5 -11.5t-32.5 11.5
t-13.5 31.5t13.5 31.5t32.5 11.5t32.5 -11.5t13.5 -31.5z" />
    <glyph glyph-name="Agrave" unicode="&#xc0;" horiz-adv-x="636" 
d="M563 0l-70 156h-350l-70 -156h-53l272 610h52l272 -610h-53zM375 425l-56 137h-2l-56 -136l-98 -225h310zM301 672l-105 138h64l78 -138h-37z" />
    <glyph glyph-name="Aacute" unicode="&#xc1;" horiz-adv-x="636" 
d="M563 0l-70 156h-350l-70 -156h-53l272 610h52l272 -610h-53zM375 425l-56 137h-2l-56 -136l-98 -225h310zM298 672l78 138h64l-105 -138h-37z" />
    <glyph glyph-name="Acircumflex" unicode="&#xc2;" horiz-adv-x="636" 
d="M563 0l-70 156h-350l-70 -156h-53l272 610h52l272 -610h-53zM375 425l-56 137h-2l-56 -136l-98 -225h310zM411 672l-93 87l-93 -87h-43l114 132h44l114 -132h-43z" />
    <glyph glyph-name="Atilde" unicode="&#xc3;" horiz-adv-x="636" 
d="M563 0l-70 156h-350l-70 -156h-53l272 610h52l272 -610h-53zM375 425l-56 137h-2l-56 -136l-98 -225h310zM458 774q4 -45 -14.5 -67.5t-55.5 -22.5q-20 0 -38 8.5t-34 19t-31.5 19t-30.5 8.5q-23 0 -31.5 -15.5t-6.5 -34.5h-38q-4 45 15 67.5t57 22.5q21 0 38 -8.5
t32.5 -19t30.5 -19t31 -8.5q23 0 31.5 15.5t6.5 34.5h38z" />
    <glyph glyph-name="Adieresis" unicode="&#xc4;" horiz-adv-x="636" 
d="M563 0l-70 156h-350l-70 -156h-53l272 610h52l272 -610h-53zM375 425l-56 137h-2l-56 -136l-98 -225h310zM252 740q0 -17 -10.5 -28.5t-31.5 -11.5t-31.5 11.5t-10.5 28.5t10.5 28.5t31.5 11.5t31.5 -11.5t10.5 -28.5zM468 740q0 -17 -10.5 -28.5t-31.5 -11.5t-31.5 11.5
t-10.5 28.5t10.5 28.5t31.5 11.5t31.5 -11.5t10.5 -28.5z" />
    <glyph glyph-name="Aring" unicode="&#xc5;" horiz-adv-x="636" 
d="M563 0l-70 156h-350l-70 -156h-53l272 610h52l272 -610h-53zM375 425l-56 137h-2l-56 -136l-98 -225h310zM418 743q0 -38 -26 -63.5t-74 -25.5t-74 25.5t-26 63.5t26 63.5t74 25.5t74 -25.5t26 -63.5zM379 743q0 26 -16.5 41.5t-44.5 15.5t-44.5 -15.5t-16.5 -41.5
t16.5 -41.5t44.5 -15.5t44.5 15.5t16.5 41.5z" />
    <glyph glyph-name="AE" unicode="&#xc6;" horiz-adv-x="865" 
d="M439 0v154h-259l-104 -154h-56l412 610h377v-46h-318v-231h290v-46h-290v-241h318v-46h-370zM439 541l-228 -341h228v341z" />
    <glyph glyph-name="Ccedilla" unicode="&#xc7;" horiz-adv-x="612" 
d="M560 30q-32 -16 -77.5 -28t-111.5 -12q-68 0 -125.5 21.5t-100.5 62t-67 99t-24 132.5t23.5 132.5t66 99t101 62t129.5 21.5q63 0 104.5 -11t70.5 -26v-50q-38 22 -78.5 31t-96.5 9q-60 0 -109.5 -17.5t-84.5 -51.5t-54.5 -84t-19.5 -115t19.5 -115t55 -84t84 -51.5
t106.5 -17.5q63 0 107.5 13.5t81.5 33.5v-54zM324 -145q11 -3 25.5 -5.5t38.5 -2.5q23 0 38.5 7.5t15.5 30.5q0 26 -26.5 35t-68.5 11l14 76l32 -3l-4 -46q19 -1 37 -5t31.5 -13t22 -23.5t8.5 -36.5q0 -21 -9.5 -35t-24 -22.5t-32.5 -12t-34 -3.5q-23 0 -38 3t-26 6v39z" />
    <glyph glyph-name="Egrave" unicode="&#xc8;" horiz-adv-x="510" 
d="M80 0v610h374v-46h-322v-231h294v-46h-294v-241h322v-46h-374zM308 672l-105 138h64l78 -138h-37z" />
    <glyph glyph-name="Eacute" unicode="&#xc9;" horiz-adv-x="510" 
d="M80 0v610h374v-46h-322v-231h294v-46h-294v-241h322v-46h-374zM225 672l78 138h64l-105 -138h-37z" />
    <glyph glyph-name="Ecircumflex" unicode="&#xca;" horiz-adv-x="510" 
d="M80 0v610h374v-46h-322v-231h294v-46h-294v-241h322v-46h-374zM368 672l-93 87l-93 -87h-43l114 132h44l114 -132h-43z" />
    <glyph glyph-name="Edieresis" unicode="&#xcb;" horiz-adv-x="510" 
d="M80 0v610h374v-46h-322v-231h294v-46h-294v-241h322v-46h-374zM209 740q0 -17 -10.5 -28.5t-31.5 -11.5t-31.5 11.5t-10.5 28.5t10.5 28.5t31.5 11.5t31.5 -11.5t10.5 -28.5zM425 740q0 -17 -10.5 -28.5t-31.5 -11.5t-31.5 11.5t-10.5 28.5t10.5 28.5t31.5 11.5
t31.5 -11.5t10.5 -28.5z" />
    <glyph glyph-name="Igrave" unicode="&#xcc;" horiz-adv-x="216" 
d="M82 0v610h52v-610h-52zM99 672l-105 138h64l78 -138h-37z" />
    <glyph glyph-name="Iacute" unicode="&#xcd;" horiz-adv-x="216" 
d="M82 0v610h52v-610h-52zM82 672l78 138h64l-105 -138h-37z" />
    <glyph glyph-name="Icircumflex" unicode="&#xce;" horiz-adv-x="216" 
d="M82 0v610h52v-610h-52zM203 672l-93 87l-93 -87h-43l114 132h44l114 -132h-43z" />
    <glyph glyph-name="Idieresis" unicode="&#xcf;" horiz-adv-x="216" 
d="M82 0v610h52v-610h-52zM44 740q0 -17 -10.5 -28.5t-31.5 -11.5t-31.5 11.5t-10.5 28.5t10.5 28.5t31.5 11.5t31.5 -11.5t10.5 -28.5zM260 740q0 -17 -10.5 -28.5t-31.5 -11.5t-31.5 11.5t-10.5 28.5t10.5 28.5t31.5 11.5t31.5 -11.5t10.5 -28.5z" />
    <glyph glyph-name="Eth" unicode="&#xd0;" horiz-adv-x="648" 
d="M82 0v284h-66v44h66v282h213q147 0 223 -77t76 -224q0 -153 -77 -231t-226 -78h-209zM289 46q124 0 188.5 61.5t64.5 201.5q0 135 -63.5 195t-185.5 60h-159v-236h156v-44h-156v-238h155z" />
    <glyph glyph-name="Ntilde" unicode="&#xd1;" horiz-adv-x="664" 
d="M532 0l-307 408q-28 37 -52.5 71.5t-44.5 67.5h-2q5 -43 5.5 -87.5t0.5 -89.5v-370h-52v610h52l307 -408q28 -37 52.5 -71.5t44.5 -67.5h2q-2 49 -4 90.5t-2 86.5v370h52v-610h-52zM472 774q4 -45 -14.5 -67.5t-55.5 -22.5q-20 0 -38 8.5t-34 19t-31.5 19t-30.5 8.5
q-23 0 -31.5 -15.5t-6.5 -34.5h-38q-4 45 15 67.5t57 22.5q21 0 38 -8.5t32.5 -19t30.5 -19t31 -8.5q23 0 31.5 15.5t6.5 34.5h38z" />
    <glyph glyph-name="Ograve" unicode="&#xd2;" horiz-adv-x="746" 
d="M373 37q58 0 107 17.5t84.5 51.5t55.5 84t20 115t-20 115t-55.5 84t-84.5 51.5t-107 17.5t-107 -17.5t-84.5 -51.5t-55.5 -84t-20 -115t20 -115t55.5 -84t84.5 -51.5t107 -17.5zM692 305q0 -74 -24.5 -132.5t-67.5 -99t-101.5 -62t-125.5 -21.5q-68 0 -126 21.5t-101 62
t-67.5 99t-24.5 132.5t24.5 132.5t67.5 99t101 62t126 21.5q67 0 125.5 -21.5t101.5 -62t67.5 -99t24.5 -132.5zM386 672l-105 138h64l78 -138h-37z" />
    <glyph glyph-name="Oacute" unicode="&#xd3;" horiz-adv-x="746" 
d="M373 37q58 0 107 17.5t84.5 51.5t55.5 84t20 115t-20 115t-55.5 84t-84.5 51.5t-107 17.5t-107 -17.5t-84.5 -51.5t-55.5 -84t-20 -115t20 -115t55.5 -84t84.5 -51.5t107 -17.5zM692 305q0 -74 -24.5 -132.5t-67.5 -99t-101.5 -62t-125.5 -21.5q-68 0 -126 21.5t-101 62
t-67.5 99t-24.5 132.5t24.5 132.5t67.5 99t101 62t126 21.5q67 0 125.5 -21.5t101.5 -62t67.5 -99t24.5 -132.5zM323 672l78 138h64l-105 -138h-37z" />
    <glyph glyph-name="Ocircumflex" unicode="&#xd4;" horiz-adv-x="746" 
d="M373 37q58 0 107 17.5t84.5 51.5t55.5 84t20 115t-20 115t-55.5 84t-84.5 51.5t-107 17.5t-107 -17.5t-84.5 -51.5t-55.5 -84t-20 -115t20 -115t55.5 -84t84.5 -51.5t107 -17.5zM692 305q0 -74 -24.5 -132.5t-67.5 -99t-101.5 -62t-125.5 -21.5q-68 0 -126 21.5t-101 62
t-67.5 99t-24.5 132.5t24.5 132.5t67.5 99t101 62t126 21.5q67 0 125.5 -21.5t101.5 -62t67.5 -99t24.5 -132.5zM466 672l-93 87l-93 -87h-43l114 132h44l114 -132h-43z" />
    <glyph glyph-name="Otilde" unicode="&#xd5;" horiz-adv-x="746" 
d="M373 37q58 0 107 17.5t84.5 51.5t55.5 84t20 115t-20 115t-55.5 84t-84.5 51.5t-107 17.5t-107 -17.5t-84.5 -51.5t-55.5 -84t-20 -115t20 -115t55.5 -84t84.5 -51.5t107 -17.5zM692 305q0 -74 -24.5 -132.5t-67.5 -99t-101.5 -62t-125.5 -21.5q-68 0 -126 21.5t-101 62
t-67.5 99t-24.5 132.5t24.5 132.5t67.5 99t101 62t126 21.5q67 0 125.5 -21.5t101.5 -62t67.5 -99t24.5 -132.5zM513 774q4 -45 -14.5 -67.5t-55.5 -22.5q-20 0 -38 8.5t-34 19t-31.5 19t-30.5 8.5q-23 0 -31.5 -15.5t-6.5 -34.5h-38q-4 45 15 67.5t57 22.5q21 0 38 -8.5
t32.5 -19t30.5 -19t31 -8.5q23 0 31.5 15.5t6.5 34.5h38z" />
    <glyph glyph-name="Odieresis" unicode="&#xd6;" horiz-adv-x="746" 
d="M373 37q58 0 107 17.5t84.5 51.5t55.5 84t20 115t-20 115t-55.5 84t-84.5 51.5t-107 17.5t-107 -17.5t-84.5 -51.5t-55.5 -84t-20 -115t20 -115t55.5 -84t84.5 -51.5t107 -17.5zM692 305q0 -74 -24.5 -132.5t-67.5 -99t-101.5 -62t-125.5 -21.5q-68 0 -126 21.5t-101 62
t-67.5 99t-24.5 132.5t24.5 132.5t67.5 99t101 62t126 21.5q67 0 125.5 -21.5t101.5 -62t67.5 -99t24.5 -132.5zM307 740q0 -17 -10.5 -28.5t-31.5 -11.5t-31.5 11.5t-10.5 28.5t10.5 28.5t31.5 11.5t31.5 -11.5t10.5 -28.5zM523 740q0 -17 -10.5 -28.5t-31.5 -11.5
t-31.5 11.5t-10.5 28.5t10.5 28.5t31.5 11.5t31.5 -11.5t10.5 -28.5z" />
    <glyph glyph-name="multiply" unicode="&#xd7;" horiz-adv-x="514" 
d="M257 276l-155 -155l-32 32l155 155l-155 155l32 32l155 -155l155 155l32 -32l-155 -155l155 -155l-32 -32z" />
    <glyph glyph-name="Oslash" unicode="&#xd8;" horiz-adv-x="746" 
d="M74 -18l75 89q-45 42 -70 100.5t-25 133.5q0 74 24.5 132.5t67.5 99t101 62t126 21.5q55 0 104 -14.5t89 -41.5l52 62h54l-74 -88q45 -42 69.5 -100t24.5 -133q0 -74 -24.5 -132.5t-67.5 -99t-101.5 -62t-125.5 -21.5q-112 0 -192 55l-53 -63h-54zM535 528
q-33 23 -73.5 34t-88.5 11q-58 0 -107 -17.5t-84.5 -51.5t-55.5 -84t-20 -115q0 -66 19.5 -115t54.5 -83zM212 81q68 -44 161 -44q58 0 107 17.5t84.5 51.5t55.5 84t20 115q0 64 -19 113.5t-54 83.5z" />
    <glyph glyph-name="Ugrave" unicode="&#xd9;" horiz-adv-x="684" 
d="M555 610h52v-350q0 -149 -69 -212q-34 -31 -83.5 -44.5t-112.5 -13.5t-111.5 13.5t-82.5 44.5q-35 32 -53 84.5t-18 127.5v350h52v-345q0 -63 13 -106.5t39.5 -70.5t66.5 -39.5t94 -12.5t94 12.5t66.5 39.5t39.5 70.5t13 106.5v345zM355 672l-105 138h64l78 -138h-37z
" />
    <glyph glyph-name="Uacute" unicode="&#xda;" horiz-adv-x="684" 
d="M555 610h52v-350q0 -149 -69 -212q-34 -31 -83.5 -44.5t-112.5 -13.5t-111.5 13.5t-82.5 44.5q-35 32 -53 84.5t-18 127.5v350h52v-345q0 -63 13 -106.5t39.5 -70.5t66.5 -39.5t94 -12.5t94 12.5t66.5 39.5t39.5 70.5t13 106.5v345zM292 672l78 138h64l-105 -138h-37z
" />
    <glyph glyph-name="Ucircumflex" unicode="&#xdb;" horiz-adv-x="684" 
d="M555 610h52v-350q0 -149 -69 -212q-34 -31 -83.5 -44.5t-112.5 -13.5t-111.5 13.5t-82.5 44.5q-35 32 -53 84.5t-18 127.5v350h52v-345q0 -63 13 -106.5t39.5 -70.5t66.5 -39.5t94 -12.5t94 12.5t66.5 39.5t39.5 70.5t13 106.5v345zM435 672l-93 87l-93 -87h-43l114 132
h44l114 -132h-43z" />
    <glyph glyph-name="Udieresis" unicode="&#xdc;" horiz-adv-x="684" 
d="M555 610h52v-350q0 -149 -69 -212q-34 -31 -83.5 -44.5t-112.5 -13.5t-111.5 13.5t-82.5 44.5q-35 32 -53 84.5t-18 127.5v350h52v-345q0 -63 13 -106.5t39.5 -70.5t66.5 -39.5t94 -12.5t94 12.5t66.5 39.5t39.5 70.5t13 106.5v345zM276 740q0 -17 -10.5 -28.5
t-31.5 -11.5t-31.5 11.5t-10.5 28.5t10.5 28.5t31.5 11.5t31.5 -11.5t10.5 -28.5zM492 740q0 -17 -10.5 -28.5t-31.5 -11.5t-31.5 11.5t-10.5 28.5t10.5 28.5t31.5 11.5t31.5 -11.5t10.5 -28.5z" />
    <glyph glyph-name="Yacute" unicode="&#xdd;" horiz-adv-x="602" 
d="M275 0v236l-251 374h54l142 -213l79 -126h4l79 126l142 213h54l-251 -374v-236h-52zM280 672l78 138h64l-105 -138h-37z" />
    <glyph glyph-name="Thorn" unicode="&#xde;" horiz-adv-x="570" 
d="M295 196q43 0 74.5 6.5t52 22t30.5 41.5t10 64q0 76 -41 105t-126 29h-161v-268h161zM134 150v-150h-52v610h52v-100h161q107 0 163 -41t56 -139t-56 -139t-163 -41h-161z" />
    <glyph glyph-name="germandbls" unicode="&#xdf;" horiz-adv-x="604" 
d="M255 62q27 -11 57.5 -20t76.5 -9q63 0 90 27t27 66q0 34 -16 55.5t-40 35.5t-52 24t-52 22t-40 29t-16 45q0 23 12 38t30.5 26.5t39.5 21.5t39.5 23t30.5 30.5t12 44.5q0 45 -37.5 69t-106.5 24q-50 0 -85 -13t-56.5 -36t-31 -54.5t-9.5 -67.5v-443h-50v447q0 43 12 82
t39.5 68t71.5 46t107 17q87 0 140.5 -36t53.5 -103q0 -31 -12 -53t-30 -38t-39 -27.5t-39 -22t-30 -21t-12 -23.5q0 -17 16 -27.5t39.5 -20t51.5 -20.5t51.5 -29t39.5 -45t16 -68q0 -63 -42.5 -99.5t-120.5 -36.5q-45 0 -78 9t-58 20v43z" />
    <glyph glyph-name="agrave" unicode="&#xe0;" horiz-adv-x="516" 
d="M393 214q-31 8 -70 15t-77 7q-149 0 -149 -106q0 -51 32 -74.5t89 -23.5q34 0 61 8t48 22.5t37 34t29 43.5v74zM400 0l-6 84h-2q-10 -18 -25.5 -34.5t-37.5 -30t-50 -21.5t-63 -8q-78 0 -123 35.5t-45 104.5q0 72 51.5 110t139.5 38q48 0 88 -8t66 -16v42q0 61 -36 92.5
t-102 31.5q-51 0 -91 -10.5t-75 -27.5v44q32 15 72.5 25.5t94.5 10.5q40 0 74.5 -9.5t59 -30.5t38.5 -53.5t14 -77.5v-291h-42zM271 512l-105 138h64l78 -138h-37z" />
    <glyph glyph-name="aacute" unicode="&#xe1;" horiz-adv-x="516" 
d="M393 214q-31 8 -70 15t-77 7q-149 0 -149 -106q0 -51 32 -74.5t89 -23.5q34 0 61 8t48 22.5t37 34t29 43.5v74zM400 0l-6 84h-2q-10 -18 -25.5 -34.5t-37.5 -30t-50 -21.5t-63 -8q-78 0 -123 35.5t-45 104.5q0 72 51.5 110t139.5 38q48 0 88 -8t66 -16v42q0 61 -36 92.5
t-102 31.5q-51 0 -91 -10.5t-75 -27.5v44q32 15 72.5 25.5t94.5 10.5q40 0 74.5 -9.5t59 -30.5t38.5 -53.5t14 -77.5v-291h-42zM208 512l78 138h64l-105 -138h-37z" />
    <glyph glyph-name="acircumflex" unicode="&#xe2;" horiz-adv-x="516" 
d="M393 214q-31 8 -70 15t-77 7q-149 0 -149 -106q0 -51 32 -74.5t89 -23.5q34 0 61 8t48 22.5t37 34t29 43.5v74zM400 0l-6 84h-2q-10 -18 -25.5 -34.5t-37.5 -30t-50 -21.5t-63 -8q-78 0 -123 35.5t-45 104.5q0 72 51.5 110t139.5 38q48 0 88 -8t66 -16v42q0 61 -36 92.5
t-102 31.5q-51 0 -91 -10.5t-75 -27.5v44q32 15 72.5 25.5t94.5 10.5q40 0 74.5 -9.5t59 -30.5t38.5 -53.5t14 -77.5v-291h-42zM351 512l-93 87l-93 -87h-43l114 132h44l114 -132h-43z" />
    <glyph glyph-name="atilde" unicode="&#xe3;" horiz-adv-x="516" 
d="M393 214q-31 8 -70 15t-77 7q-149 0 -149 -106q0 -51 32 -74.5t89 -23.5q34 0 61 8t48 22.5t37 34t29 43.5v74zM400 0l-6 84h-2q-10 -18 -25.5 -34.5t-37.5 -30t-50 -21.5t-63 -8q-78 0 -123 35.5t-45 104.5q0 72 51.5 110t139.5 38q48 0 88 -8t66 -16v42q0 61 -36 92.5
t-102 31.5q-51 0 -91 -10.5t-75 -27.5v44q32 15 72.5 25.5t94.5 10.5q40 0 74.5 -9.5t59 -30.5t38.5 -53.5t14 -77.5v-291h-42zM398 614q4 -45 -14.5 -67.5t-55.5 -22.5q-20 0 -38 8.5t-34 19t-31.5 19t-30.5 8.5q-23 0 -31.5 -15.5t-6.5 -34.5h-38q-4 45 15 67.5t57 22.5
q21 0 38 -8.5t32.5 -19t30.5 -19t31 -8.5q23 0 31.5 15.5t6.5 34.5h38z" />
    <glyph glyph-name="adieresis" unicode="&#xe4;" horiz-adv-x="516" 
d="M393 214q-31 8 -70 15t-77 7q-149 0 -149 -106q0 -51 32 -74.5t89 -23.5q34 0 61 8t48 22.5t37 34t29 43.5v74zM400 0l-6 84h-2q-10 -18 -25.5 -34.5t-37.5 -30t-50 -21.5t-63 -8q-78 0 -123 35.5t-45 104.5q0 72 51.5 110t139.5 38q48 0 88 -8t66 -16v42q0 61 -36 92.5
t-102 31.5q-51 0 -91 -10.5t-75 -27.5v44q32 15 72.5 25.5t94.5 10.5q40 0 74.5 -9.5t59 -30.5t38.5 -53.5t14 -77.5v-291h-42zM192 580q0 -17 -10.5 -28.5t-31.5 -11.5t-31.5 11.5t-10.5 28.5t10.5 28.5t31.5 11.5t31.5 -11.5t10.5 -28.5zM408 580q0 -17 -10.5 -28.5
t-31.5 -11.5t-31.5 11.5t-10.5 28.5t10.5 28.5t31.5 11.5t31.5 -11.5t10.5 -28.5z" />
    <glyph glyph-name="aring" unicode="&#xe5;" horiz-adv-x="516" 
d="M393 214q-31 8 -70 15t-77 7q-149 0 -149 -106q0 -51 32 -74.5t89 -23.5q34 0 61 8t48 22.5t37 34t29 43.5v74zM400 0l-6 84h-2q-10 -18 -25.5 -34.5t-37.5 -30t-50 -21.5t-63 -8q-78 0 -123 35.5t-45 104.5q0 72 51.5 110t139.5 38q48 0 88 -8t66 -16v42q0 61 -36 92.5
t-102 31.5q-51 0 -91 -10.5t-75 -27.5v44q32 15 72.5 25.5t94.5 10.5q40 0 74.5 -9.5t59 -30.5t38.5 -53.5t14 -77.5v-291h-42zM358 583q0 -38 -26 -63.5t-74 -25.5t-74 25.5t-26 63.5t26 63.5t74 25.5t74 -25.5t26 -63.5zM319 583q0 26 -16.5 41.5t-44.5 15.5t-44.5 -15.5
t-16.5 -41.5t16.5 -41.5t44.5 -15.5t44.5 15.5t16.5 41.5z" />
    <glyph glyph-name="ae" unicode="&#xe6;" horiz-adv-x="797" 
d="M724 31q-73 -41 -145 -41q-69 0 -116 23t-75 65q-20 -34 -62.5 -61t-109.5 -27q-78 0 -123 35.5t-45 104.5q0 72 51.5 110t139.5 38q32 0 60.5 -4.5t52.5 -9.5q4 54 27 96q-32 60 -124 60q-51 0 -91 -10.5t-75 -27.5v44q32 15 72.5 25.5t94.5 10.5q51 0 89.5 -14
t62.5 -46q54 60 155 60q87 0 137.5 -53.5t50.5 -158.5q0 -8 -2 -19.5t-4 -22.5h-345q3 -39 14.5 -71.5t33 -55.5t54 -36t77.5 -13q62 0 145 46v-47zM350 224q-25 5 -51.5 8.5t-52.5 3.5q-149 0 -149 -106q0 -51 32 -74.5t89 -23.5t93 20.5t62 54.5q-23 54 -23 117zM703 248
q0 90 -39 131t-101 41q-41 0 -70 -13t-48.5 -36.5t-30 -55t-13.5 -67.5h302z" />
    <glyph glyph-name="ccedilla" unicode="&#xe7;" horiz-adv-x="489" 
d="M441 24q-29 -17 -63.5 -25.5t-85.5 -8.5q-56 0 -100.5 18.5t-76 50t-48.5 74.5t-17 93q0 49 17 92.5t48.5 75t76 50t98.5 18.5q51 0 85 -10t62 -25v-44q-30 18 -66 27.5t-81 9.5q-43 0 -78 -15t-60 -41t-38.5 -61.5t-13.5 -76.5t13.5 -76.5t39 -61.5t60.5 -41t79 -15
q42 0 78.5 8.5t70.5 28.5v-45zM232 -145q11 -3 25.5 -5.5t38.5 -2.5q23 0 38.5 7.5t15.5 30.5q0 26 -26.5 35t-68.5 11l14 76l32 -3l-4 -46q19 -1 37 -5t31.5 -13t22 -23.5t8.5 -36.5q0 -21 -9.5 -35t-24 -22.5t-32.5 -12t-34 -3.5q-23 0 -38 3t-26 6v39z" />
    <glyph glyph-name="egrave" unicode="&#xe8;" horiz-adv-x="528" 
d="M455 31q-73 -41 -160 -41q-59 0 -105 17.5t-77 49t-47 75t-16 94.5q0 50 15 93.5t44 75t71.5 49.5t98.5 18q94 0 148.5 -53.5t54.5 -158.5q0 -8 -2 -19.5t-4 -22.5h-376q5 -78 55 -127t140 -49q77 0 160 46v-47zM434 248q0 90 -42.5 131t-112.5 41q-41 0 -72.5 -13
t-54 -36.5t-35.5 -55t-16 -67.5h333zM277 512l-105 138h64l78 -138h-37z" />
    <glyph glyph-name="eacute" unicode="&#xe9;" horiz-adv-x="528" 
d="M455 31q-73 -41 -160 -41q-59 0 -105 17.5t-77 49t-47 75t-16 94.5q0 50 15 93.5t44 75t71.5 49.5t98.5 18q94 0 148.5 -53.5t54.5 -158.5q0 -8 -2 -19.5t-4 -22.5h-376q5 -78 55 -127t140 -49q77 0 160 46v-47zM434 248q0 90 -42.5 131t-112.5 41q-41 0 -72.5 -13
t-54 -36.5t-35.5 -55t-16 -67.5h333zM214 512l78 138h64l-105 -138h-37z" />
    <glyph glyph-name="ecircumflex" unicode="&#xea;" horiz-adv-x="528" 
d="M455 31q-73 -41 -160 -41q-59 0 -105 17.5t-77 49t-47 75t-16 94.5q0 50 15 93.5t44 75t71.5 49.5t98.5 18q94 0 148.5 -53.5t54.5 -158.5q0 -8 -2 -19.5t-4 -22.5h-376q5 -78 55 -127t140 -49q77 0 160 46v-47zM434 248q0 90 -42.5 131t-112.5 41q-41 0 -72.5 -13
t-54 -36.5t-35.5 -55t-16 -67.5h333zM357 512l-93 87l-93 -87h-43l114 132h44l114 -132h-43z" />
    <glyph glyph-name="edieresis" unicode="&#xeb;" horiz-adv-x="528" 
d="M455 31q-73 -41 -160 -41q-59 0 -105 17.5t-77 49t-47 75t-16 94.5q0 50 15 93.5t44 75t71.5 49.5t98.5 18q94 0 148.5 -53.5t54.5 -158.5q0 -8 -2 -19.5t-4 -22.5h-376q5 -78 55 -127t140 -49q77 0 160 46v-47zM434 248q0 90 -42.5 131t-112.5 41q-41 0 -72.5 -13
t-54 -36.5t-35.5 -55t-16 -67.5h333zM198 580q0 -17 -10.5 -28.5t-31.5 -11.5t-31.5 11.5t-10.5 28.5t10.5 28.5t31.5 11.5t31.5 -11.5t10.5 -28.5zM414 580q0 -17 -10.5 -28.5t-31.5 -11.5t-31.5 11.5t-10.5 28.5t10.5 28.5t31.5 11.5t31.5 -11.5t10.5 -28.5z" />
    <glyph glyph-name="igrave" unicode="&#xec;" horiz-adv-x="206" 
d="M78 0v450h50v-450h-50zM96 512l-105 138h64l78 -138h-37z" />
    <glyph glyph-name="iacute" unicode="&#xed;" horiz-adv-x="206" 
d="M78 0v450h50v-450h-50zM80 512l78 138h64l-105 -138h-37z" />
    <glyph glyph-name="icircumflex" unicode="&#xee;" horiz-adv-x="206" 
d="M78 0v450h50v-450h-50zM201 512l-93 87l-93 -87h-43l114 132h44l114 -132h-43z" />
    <glyph glyph-name="idieresis" unicode="&#xef;" horiz-adv-x="206" 
d="M59 0v450h50v-450h-50zM18 580q0 -17 -10.5 -28.5t-31.5 -11.5t-31.5 11.5t-10.5 28.5t10.5 28.5t31.5 11.5t31.5 -11.5t10.5 -28.5zM234 580q0 -17 -10.5 -28.5t-31.5 -11.5t-31.5 11.5t-10.5 28.5t10.5 28.5t31.5 11.5t31.5 -11.5t10.5 -28.5z" />
    <glyph glyph-name="eth" unicode="&#xf0;" horiz-adv-x="560" 
d="M409 551q45 -45 70 -106.5t25 -139.5q0 -80 -16.5 -139t-47 -98t-74 -58.5t-96.5 -19.5q-46 0 -86.5 15t-71 43t-48.5 67.5t-18 89.5q0 39 11.5 75.5t37 65.5t65.5 46.5t96 17.5q33 0 63 -8t55.5 -20t46 -27t35.5 -29q0 64 -23.5 116t-68.5 90l-171 -73v44l133 56
q-38 22 -83 34t-97 12v43q67 0 124.5 -17.5t103.5 -50.5l142 60v-44zM456 272q-38 45 -87.5 69.5t-110.5 24.5q-46 0 -77 -14t-50.5 -37.5t-28 -53t-8.5 -59.5q0 -43 15 -74.5t40 -52.5t56.5 -31t63.5 -10q92 0 135.5 63t51.5 175z" />
    <glyph glyph-name="ntilde" unicode="&#xf1;" horiz-adv-x="568" 
d="M444 0v279q0 72 -30.5 105.5t-90.5 33.5q-32 0 -59.5 -8.5t-51.5 -22.5t-45.5 -32.5t-40.5 -39.5v-315h-50v450h43l6 -84h2q15 15 35 32t45 31t55.5 23.5t65.5 9.5q74 0 120 -43.5t46 -130.5v-288h-50zM424 614q4 -45 -14.5 -67.5t-55.5 -22.5q-20 0 -38 8.5t-34 19
t-31.5 19t-30.5 8.5q-23 0 -31.5 -15.5t-6.5 -34.5h-38q-4 45 15 67.5t57 22.5q21 0 38 -8.5t32.5 -19t30.5 -19t31 -8.5q23 0 31.5 15.5t6.5 34.5h38z" />
    <glyph glyph-name="ograve" unicode="&#xf2;" horiz-adv-x="580" 
d="M530 226q0 -50 -17 -93t-48.5 -74.5t-76 -50t-98.5 -18.5t-98.5 18.5t-76 50t-48.5 74.5t-17 93q0 49 17 92.5t48.5 75t76 50t98.5 18.5t98.5 -18.5t76 -50t48.5 -75t17 -92.5zM290 32q43 0 78 15t60 41t38.5 61.5t13.5 76.5t-13.5 76.5t-38.5 61.5t-60 41t-78 15
t-78 -15t-60 -41t-38.5 -61.5t-13.5 -76.5t13.5 -76.5t38.5 -61.5t60 -41t78 -15zM293 512l-105 138h64l78 -138h-37z" />
    <glyph glyph-name="oacute" unicode="&#xf3;" horiz-adv-x="580" 
d="M530 226q0 -50 -17 -93t-48.5 -74.5t-76 -50t-98.5 -18.5t-98.5 18.5t-76 50t-48.5 74.5t-17 93q0 49 17 92.5t48.5 75t76 50t98.5 18.5t98.5 -18.5t76 -50t48.5 -75t17 -92.5zM290 32q43 0 78 15t60 41t38.5 61.5t13.5 76.5t-13.5 76.5t-38.5 61.5t-60 41t-78 15
t-78 -15t-60 -41t-38.5 -61.5t-13.5 -76.5t13.5 -76.5t38.5 -61.5t60 -41t78 -15zM250 512l78 138h64l-105 -138h-37z" />
    <glyph glyph-name="ocircumflex" unicode="&#xf4;" horiz-adv-x="580" 
d="M530 226q0 -50 -17 -93t-48.5 -74.5t-76 -50t-98.5 -18.5t-98.5 18.5t-76 50t-48.5 74.5t-17 93q0 49 17 92.5t48.5 75t76 50t98.5 18.5t98.5 -18.5t76 -50t48.5 -75t17 -92.5zM290 32q43 0 78 15t60 41t38.5 61.5t13.5 76.5t-13.5 76.5t-38.5 61.5t-60 41t-78 15
t-78 -15t-60 -41t-38.5 -61.5t-13.5 -76.5t13.5 -76.5t38.5 -61.5t60 -41t78 -15zM383 512l-93 87l-93 -87h-43l114 132h44l114 -132h-43z" />
    <glyph glyph-name="otilde" unicode="&#xf5;" horiz-adv-x="580" 
d="M530 226q0 -50 -17 -93t-48.5 -74.5t-76 -50t-98.5 -18.5t-98.5 18.5t-76 50t-48.5 74.5t-17 93q0 49 17 92.5t48.5 75t76 50t98.5 18.5t98.5 -18.5t76 -50t48.5 -75t17 -92.5zM290 32q43 0 78 15t60 41t38.5 61.5t13.5 76.5t-13.5 76.5t-38.5 61.5t-60 41t-78 15
t-78 -15t-60 -41t-38.5 -61.5t-13.5 -76.5t13.5 -76.5t38.5 -61.5t60 -41t78 -15zM430 614q4 -45 -14.5 -67.5t-55.5 -22.5q-20 0 -38 8.5t-34 19t-31.5 19t-30.5 8.5q-23 0 -31.5 -15.5t-6.5 -34.5h-38q-4 45 15 67.5t57 22.5q21 0 38 -8.5t32.5 -19t30.5 -19t31 -8.5
q23 0 31.5 15.5t6.5 34.5h38z" />
    <glyph glyph-name="odieresis" unicode="&#xf6;" horiz-adv-x="580" 
d="M530 226q0 -50 -17 -93t-48.5 -74.5t-76 -50t-98.5 -18.5t-98.5 18.5t-76 50t-48.5 74.5t-17 93q0 49 17 92.5t48.5 75t76 50t98.5 18.5t98.5 -18.5t76 -50t48.5 -75t17 -92.5zM290 32q43 0 78 15t60 41t38.5 61.5t13.5 76.5t-13.5 76.5t-38.5 61.5t-60 41t-78 15
t-78 -15t-60 -41t-38.5 -61.5t-13.5 -76.5t13.5 -76.5t38.5 -61.5t60 -41t78 -15zM224 580q0 -17 -10.5 -28.5t-31.5 -11.5t-31.5 11.5t-10.5 28.5t10.5 28.5t31.5 11.5t31.5 -11.5t10.5 -28.5zM440 580q0 -17 -10.5 -28.5t-31.5 -11.5t-31.5 11.5t-10.5 28.5t10.5 28.5
t31.5 11.5t31.5 -11.5t10.5 -28.5z" />
    <glyph glyph-name="divide" unicode="&#xf7;" horiz-adv-x="514" 
d="M50 286v44h414v-44h-414zM257 90q-21 0 -36 14t-15 37t15 37t36 14t36 -14t15 -37t-15 -37t-36 -14zM257 421q-21 0 -36 14t-15 37t15 37t36 14t36 -14t15 -37t-15 -37t-36 -14z" />
    <glyph glyph-name="oslash" unicode="&#xf8;" horiz-adv-x="580" 
d="M62 -18l59 70q-34 32 -52.5 77t-18.5 97q0 49 17 92.5t48.5 75t76 50t98.5 18.5q42 0 76.5 -10.5t63.5 -30.5l38 45h50l-58 -69q34 -32 52 -76t18 -95q0 -50 -17 -93t-48.5 -74.5t-76 -50t-98.5 -18.5q-81 0 -139 39l-39 -47h-50zM401 386q-46 34 -111 34q-43 0 -78 -15
t-60 -41t-38.5 -61.5t-13.5 -76.5q0 -42 13.5 -77t38.5 -61zM181 64q47 -32 109 -32q43 0 78 15t60 41t38.5 61.5t13.5 76.5q0 40 -13 74.5t-37 60.5z" />
    <glyph glyph-name="ugrave" unicode="&#xf9;" horiz-adv-x="554" 
d="M435 0l-6 84h-2q-14 -18 -31 -35t-39 -30.5t-50 -22t-64 -8.5q-37 0 -68 10t-53.5 30t-35 51t-12.5 73v298h50v-289q0 -69 31 -99t89 -30q33 0 61 9t50.5 23.5t40.5 33.5t32 39v313h50v-450h-43zM280 512l-105 138h64l78 -138h-37z" />
    <glyph glyph-name="uacute" unicode="&#xfa;" horiz-adv-x="554" 
d="M435 0l-6 84h-2q-14 -18 -31 -35t-39 -30.5t-50 -22t-64 -8.5q-37 0 -68 10t-53.5 30t-35 51t-12.5 73v298h50v-289q0 -69 31 -99t89 -30q33 0 61 9t50.5 23.5t40.5 33.5t32 39v313h50v-450h-43zM237 512l78 138h64l-105 -138h-37z" />
    <glyph glyph-name="ucircumflex" unicode="&#xfb;" horiz-adv-x="554" 
d="M435 0l-6 84h-2q-14 -18 -31 -35t-39 -30.5t-50 -22t-64 -8.5q-37 0 -68 10t-53.5 30t-35 51t-12.5 73v298h50v-289q0 -69 31 -99t89 -30q33 0 61 9t50.5 23.5t40.5 33.5t32 39v313h50v-450h-43zM370 512l-93 87l-93 -87h-43l114 132h44l114 -132h-43z" />
    <glyph glyph-name="udieresis" unicode="&#xfc;" horiz-adv-x="554" 
d="M435 0l-6 84h-2q-14 -18 -31 -35t-39 -30.5t-50 -22t-64 -8.5q-37 0 -68 10t-53.5 30t-35 51t-12.5 73v298h50v-289q0 -69 31 -99t89 -30q33 0 61 9t50.5 23.5t40.5 33.5t32 39v313h50v-450h-43zM211 580q0 -17 -10.5 -28.5t-31.5 -11.5t-31.5 11.5t-10.5 28.5t10.5 28.5
t31.5 11.5t31.5 -11.5t10.5 -28.5zM427 580q0 -17 -10.5 -28.5t-31.5 -11.5t-31.5 11.5t-10.5 28.5t10.5 28.5t31.5 11.5t31.5 -11.5t10.5 -28.5z" />
    <glyph glyph-name="yacute" unicode="&#xfd;" horiz-adv-x="490" 
d="M224 1l-202 449h50l114 -253l62 -153h2l59 155l105 251h52l-242 -570q-11 -26 -21.5 -45t-24 -32t-31.5 -19.5t-45 -6.5q-22 0 -38.5 5t-29.5 11v43q11 -6 27 -11.5t42 -5.5q31 0 46 17.5t31 55.5zM224 512l78 138h64l-105 -138h-37z" />
    <glyph glyph-name="thorn" unicode="&#xfe;" horiz-adv-x="554" 
d="M78 -215v865h50v-195l-1 -89h2q13 18 30.5 35t40 30.5t49.5 22t59 8.5q97 0 145.5 -63.5t48.5 -168.5q0 -63 -15 -108t-40.5 -74.5t-60.5 -43.5t-75 -14q-64 0 -108.5 24.5t-74.5 69.5h-2l2 -84v-215h-50zM128 138q24 -42 70.5 -73t106.5 -31q29 0 55.5 11t47 35t32.5 61
t12 89q0 41 -8.5 75.5t-27 59.5t-47 39t-68.5 14q-57 0 -100 -30t-73 -73v-177z" />
    <glyph glyph-name="ydieresis" unicode="&#xff;" horiz-adv-x="490" 
d="M224 1l-202 449h50l114 -253l62 -153h2l59 155l105 251h52l-242 -570q-11 -26 -21.5 -45t-24 -32t-31.5 -19.5t-45 -6.5q-22 0 -38.5 5t-29.5 11v43q11 -6 27 -11.5t42 -5.5q31 0 46 17.5t31 55.5zM179 580q0 -17 -10.5 -28.5t-31.5 -11.5t-31.5 11.5t-10.5 28.5
t10.5 28.5t31.5 11.5t31.5 -11.5t10.5 -28.5zM395 580q0 -17 -10.5 -28.5t-31.5 -11.5t-31.5 11.5t-10.5 28.5t10.5 28.5t31.5 11.5t31.5 -11.5t10.5 -28.5z" />
    <glyph glyph-name="dotlessi" unicode="&#x131;" horiz-adv-x="206" 
d="M78 0v450h50v-450h-50z" />
    <glyph glyph-name="Lslash" unicode="&#x141;" horiz-adv-x="468" 
d="M82 0v228l-62 -32v44l62 32v338h52v-311l177 92v-44l-177 -92v-209h306v-46h-358z" />
    <glyph glyph-name="lslash" unicode="&#x142;" horiz-adv-x="206" 
d="M78 0v281l-68 -35v44l68 35v325h50v-299l68 35v-44l-68 -35v-307h-50z" />
    <glyph glyph-name="OE" unicode="&#x152;" horiz-adv-x="926" 
d="M496 0q-29 -7 -59.5 -8.5t-63.5 -1.5q-68 0 -126 21.5t-101 62t-67.5 99t-24.5 132.5t24.5 132.5t67.5 99t101 62t126 21.5q32 0 63 -2t60 -8h374v-46h-322v-231h294v-46h-294v-241h322v-46h-374zM496 559q-28 10 -58.5 12t-64.5 2q-58 0 -107 -17.5t-84.5 -51.5
t-55.5 -84t-20 -115t20 -115t55.5 -84t84.5 -51.5t107 -17.5q34 0 64.5 2t58.5 10v510z" />
    <glyph glyph-name="oe" unicode="&#x153;" horiz-adv-x="898" 
d="M825 27q-36 -20 -73 -28.5t-73 -8.5q-78 0 -129 33t-76 90q-26 -57 -76 -90t-122 -33q-51 0 -93 18.5t-71.5 50t-45.5 74.5t-16 93q0 49 16 92.5t45.5 75t71.5 50t93 18.5q70 0 120.5 -33.5t76.5 -88.5q23 57 70.5 89.5t119.5 32.5q87 0 138 -53.5t51 -158.5
q0 -8 -2 -19.5t-4 -22.5h-348q5 -78 51 -127t130 -49q32 0 71 9.5t75 32.5v-47zM276 32q39 0 71 14.5t55.5 40t36.5 61.5t13 78t-13 78t-36.5 61.5t-55.5 40t-71 14.5q-40 0 -72.5 -15t-55.5 -41t-35.5 -61.5t-12.5 -76.5t12.5 -76.5t35.5 -61.5t55.5 -41t72.5 -15zM804 248
q0 90 -39.5 131t-101.5 41q-37 0 -66 -13t-50 -36.5t-33 -55t-15 -67.5h305z" />
    <glyph glyph-name="Scaron" unicode="&#x160;" horiz-adv-x="512" 
d="M48 81q40 -19 85.5 -32.5t108.5 -13.5q32 0 62 4.5t53 17.5t37 34.5t14 56.5q0 30 -15 51.5t-39.5 38t-56 30.5t-65.5 29q-29 13 -60.5 28t-57.5 35.5t-43 48t-17 65.5q0 76 54.5 111t147.5 35q51 0 92.5 -10t69.5 -21v-46q-34 14 -73.5 23t-85.5 9q-75 0 -114.5 -22
t-39.5 -79q0 -28 13.5 -47.5t36.5 -35t53 -29t62 -28.5q30 -14 63.5 -29.5t61.5 -36.5t46.5 -50t18.5 -70t-16 -71t-45 -49.5t-68.5 -28.5t-85.5 -9q-66 0 -115 13.5t-82 31.5v46zM234 672l-114 132h43l93 -87l93 87h43l-114 -132h-44z" />
    <glyph glyph-name="scaron" unicode="&#x161;" horiz-adv-x="414" 
d="M44 62q27 -11 65 -20t84 -9q63 0 95 17t32 56q0 23 -7.5 38t-23 26t-40 20.5t-58.5 21.5q-28 10 -54 21t-46 26.5t-32 37t-12 52.5q0 54 39 83.5t124 29.5q42 0 73 -8.5t55 -20.5v-43q-20 11 -51 20t-73 9q-119 0 -119 -70q0 -21 9 -35.5t25 -25.5t38 -20t48 -18
q27 -10 54.5 -21t49.5 -26.5t35.5 -38.5t13.5 -58q0 -31 -12.5 -53t-35.5 -36t-54.5 -20.5t-70.5 -6.5q-45 0 -85.5 9t-65.5 20v43zM185 512l-114 132h43l93 -87l93 87h43l-114 -132h-44z" />
    <glyph glyph-name="Ydieresis" unicode="&#x178;" horiz-adv-x="602" 
d="M275 0v236l-251 374h54l142 -213l79 -126h4l79 126l142 213h54l-251 -374v-236h-52zM235 740q0 -17 -10.5 -28.5t-31.5 -11.5t-31.5 11.5t-10.5 28.5t10.5 28.5t31.5 11.5t31.5 -11.5t10.5 -28.5zM451 740q0 -17 -10.5 -28.5t-31.5 -11.5t-31.5 11.5t-10.5 28.5
t10.5 28.5t31.5 11.5t31.5 -11.5t10.5 -28.5z" />
    <glyph glyph-name="Zcaron" unicode="&#x17d;" horiz-adv-x="556" 
d="M48 0v40l380 526l-367 -2v46h427v-40l-380 -525l396 1v-46h-456zM256 672l-114 132h43l93 -87l93 87h43l-114 -132h-44z" />
    <glyph glyph-name="zcaron" unicode="&#x17e;" horiz-adv-x="452" 
d="M40 0v38l291 367l-277 -1v46h342v-38l-292 -367l306 1v-46h-370zM204 512l-114 132h43l93 -87l93 87h43l-114 -132h-44z" />
    <glyph glyph-name="florin" unicode="&#x192;" horiz-adv-x="600" 
d="M267 376h-86l6 42h86q15 106 64 160.5t137 54.5q23 0 44 -4.5t32 -9.5l-6 -44q-13 5 -31 9.5t-42 4.5q-63 0 -99 -40t-49 -131h167l-6 -42h-167l-58 -402q-11 -81 -49 -122t-113 -41q-23 0 -44 4.5t-32 9.5l6 44q13 -5 31 -9.5t42 -4.5q28 0 46.5 6.5t31 21.5t20 38.5
t12.5 56.5z" />
    <glyph glyph-name="circumflex" unicode="&#x2c6;" horiz-adv-x="300" 
d="M243 512l-93 87l-93 -87h-43l114 132h44l114 -132h-43z" />
    <glyph glyph-name="caron" unicode="&#x2c7;" horiz-adv-x="300" 
d="M128 512l-114 132h43l93 -87l93 87h43l-114 -132h-44z" />
    <glyph glyph-name="breve" unicode="&#x2d8;" horiz-adv-x="300" 
d="M283 640q0 -36 -10.5 -61.5t-28.5 -41t-42 -23t-52 -7.5t-52 7.5t-42 23t-28.5 41t-10.5 61.5h35q0 -54 26.5 -75t71.5 -21t71.5 21t26.5 75h35z" />
    <glyph glyph-name="dotaccent" unicode="&#x2d9;" horiz-adv-x="300" 
d="M185 580q0 -17 -10.5 -28.5t-31.5 -11.5t-31.5 11.5t-10.5 28.5t10.5 28.5t31.5 11.5t31.5 -11.5t10.5 -28.5z" />
    <glyph glyph-name="ring" unicode="&#x2da;" horiz-adv-x="300" 
d="M250 583q0 -38 -26 -63.5t-74 -25.5t-74 25.5t-26 63.5t26 63.5t74 25.5t74 -25.5t26 -63.5zM211 583q0 26 -16.5 41.5t-44.5 15.5t-44.5 -15.5t-16.5 -41.5t16.5 -41.5t44.5 -15.5t44.5 15.5t16.5 41.5z" />
    <glyph glyph-name="ogonek" unicode="&#x2db;" horiz-adv-x="300" 
d="M228 -157q-15 -7 -32 -11t-37 -4q-45 0 -69 18.5t-24 56.5q0 23 12.5 41.5t29.5 31.5t34.5 21t26.5 10l18 -7q-11 -6 -25 -15.5t-26 -21t-20.5 -24t-8.5 -25.5q0 -50 55 -50q23 0 37.5 3.5t28.5 8.5v-33z" />
    <glyph glyph-name="tilde" unicode="&#x2dc;" horiz-adv-x="300" 
d="M290 614q4 -45 -14.5 -67.5t-55.5 -22.5q-20 0 -38 8.5t-34 19t-31.5 19t-30.5 8.5q-23 0 -31.5 -15.5t-6.5 -34.5h-38q-4 45 15 67.5t57 22.5q21 0 38 -8.5t32.5 -19t30.5 -19t31 -8.5q23 0 31.5 15.5t6.5 34.5h38z" />
    <glyph glyph-name="hungarumlaut" unicode="&#x2dd;" horiz-adv-x="300" 
d="M224 512l92 138h70l-121 -138h-41zM37 512l92 138h70l-121 -138h-41z" />
    <glyph glyph-name="uni03A9" unicode="&#x3a9;" horiz-adv-x="678" 
d="M390 0v40q37 27 71 60t60 71.5t41.5 81.5t15.5 91q0 45 -11.5 86.5t-39.5 73.5t-73.5 51t-114.5 19t-114.5 -19t-73.5 -51t-39.5 -73.5t-11.5 -86.5q0 -48 15.5 -91t41.5 -81.5t60 -71.5t71 -60v-40h-216v42h159q-35 21 -67.5 52.5t-58 71t-40.5 85t-15 95.5
q0 54 15.5 104t50 87.5t89.5 60t134 22.5t134 -22.5t89.5 -60t50 -87.5t15.5 -104q0 -50 -15 -95.5t-40.5 -85t-58 -71t-67.5 -52.5h159v-42h-216z" />
    <glyph glyph-name="pi" unicode="&#x3c0;" horiz-adv-x="590" 
d="M540 -4q-9 -2 -22.5 -3t-25.5 -1q-35 0 -56.5 9.5t-33.5 26.5t-16 40.5t-4 50.5v285h-200l-25 -404h-46l25 404l-100 4v42h504v-46h-111v-284q0 -48 16 -69t54 -21q8 0 18 1.5t23 3.5v-39z" />
    <glyph glyph-name="uni0E00" unicode="&#xe00;" horiz-adv-x="175" 
 />
    <glyph glyph-name="uni0E01" unicode="&#xe01;" horiz-adv-x="627" 
d="M500 0v327q0 51 -10 86.5t-32 57t-57 31t-84 9.5q-54 0 -102.5 -7t-84.5 -18v-486h-50v519q51 15 111 26.5t132 11.5q115 0 171 -54t56 -171v-332h-50z" />
    <glyph glyph-name="uni0E02" unicode="&#xe02;" horiz-adv-x="574" 
d="M447 547h50v-327q0 -114 -60 -172t-162 -58q-109 0 -164.5 51.5t-55.5 145.5q0 51 20.5 86t45.5 64t45.5 56.5t20.5 62.5q0 55 -61 55q-23 0 -38.5 -2.5t-27.5 -5.5v44q12 3 28.5 5.5t38.5 2.5q54 0 81 -25.5t27 -73.5q0 -28 -9.5 -50.5t-24 -42.5t-31.5 -39t-31.5 -40
t-24 -45t-9.5 -53q0 -69 40 -109.5t130 -40.5q85 0 128.5 43.5t43.5 140.5v327z" />
    <glyph glyph-name="uni0E03" unicode="&#xe03;" horiz-adv-x="581" 
d="M454 547h50v-327q0 -115 -57.5 -172.5t-160.5 -57.5q-109 0 -166.5 51.5t-57.5 145.5q0 38 10 66t25 50.5t32.5 42t32.5 41.5t25 49t10 64h-2q-14 -12 -32.5 -20.5t-44.5 -8.5q-19 0 -38 8.5t-30 19.5v56q18 -20 35 -30.5t37 -10.5q24 0 40.5 8.5t34.5 24.5h48v-47
q0 -39 -10 -69t-24.5 -54t-32 -45t-32 -42.5t-24.5 -46.5t-10 -57q0 -69 42 -109.5t132 -40.5q85 0 126.5 43.5t41.5 140.5v327z" />
    <glyph glyph-name="uni0E04" unicode="&#xe04;" horiz-adv-x="652" 
d="M525 0v316q0 103 -51 149t-148 46t-148 -46t-51 -149v-112q10 18 28 35.5t41.5 31t51.5 21.5t58 8q17 0 34.5 -2.5t28.5 -7.5v-50q-30 12 -63 12q-66 0 -107.5 -26t-71.5 -71v-155h-50v320q0 117 67.5 177t181.5 60t181.5 -60t67.5 -177v-320h-50z" />
    <glyph glyph-name="uni0E05" unicode="&#xe05;" horiz-adv-x="662" 
d="M538 0v372q0 70 -18.5 105.5t-68.5 35.5q-38 0 -61.5 -25t-31.5 -61h-50q-8 36 -31.5 61t-61.5 25q-50 0 -68.5 -35.5t-18.5 -105.5v-168q10 18 28.5 35.5t42.5 31t52.5 21.5t58.5 8q43 0 67 -11v-50q-15 6 -31 9.5t-36 3.5q-66 0 -109 -26t-73 -71v-155h-50v376
q0 84 31 132.5t102 48.5q46 0 78.5 -27.5t42.5 -63.5h2q10 36 42.5 63.5t78.5 27.5q71 0 102 -48.5t31 -132.5v-376h-50z" />
    <glyph glyph-name="uni0E06" unicode="&#xe06;" horiz-adv-x="629" 
d="M502 547h50v-365q0 -49 -14 -85t-39.5 -60t-60 -35.5t-76.5 -11.5q-40 0 -73 8.5t-61 23t-51 34.5t-42 43h-2l-7 -99h-42v207q0 46 17.5 80t39 66t39 66t17.5 81h-2q-14 -12 -32.5 -20.5t-44.5 -8.5q-19 0 -38 8.5t-30 19.5v56q18 -20 35 -30.5t37 -10.5q24 0 40.5 8.5
t34.5 24.5h48v-47q0 -48 -17.5 -85t-38 -70t-38 -66t-17.5 -73v-40q16 -26 38.5 -49.5t50.5 -41.5t61 -28.5t71 -10.5q76 0 111.5 38.5t35.5 111.5v361z" />
    <glyph glyph-name="uni0E07" unicode="&#xe07;" horiz-adv-x="578" 
d="M219 0l-165 440q-12 32 -22 56t-24 51h56l187 -503h2q56 15 97.5 43t69 64.5t41 78.5t13.5 86q0 93 -41 144t-113 51q-27 0 -44.5 -4t-31.5 -9v46q12 4 32 7.5t49 3.5q42 0 78 -16t63 -46.5t42.5 -74.5t15.5 -101q0 -65 -21.5 -118t-58 -93.5t-84.5 -67t-100 -38.5h-41z
" />
    <glyph glyph-name="uni0E08" unicode="&#xe08;" horiz-adv-x="571" 
d="M207 0l-98 209q-10 20 -21.5 41t-19.5 34h63l111 -240q40 4 80 22.5t72 50t52.5 75t20.5 98.5q0 105 -53 163t-168 58q-60 0 -113 -14t-93 -32v46q38 17 92.5 31.5t117.5 14.5q72 0 122.5 -20.5t82.5 -56.5t47 -84.5t15 -105.5q0 -65 -23 -115.5t-60.5 -87t-84.5 -58.5
t-95 -29h-47z" />
    <glyph glyph-name="uni0E09" unicode="&#xe09;" horiz-adv-x="607" 
d="M488 0l-7 99h-2q-16 -20 -35.5 -39.5t-46 -35t-60 -25t-78.5 -9.5q-83 0 -132 43t-49 141v57q0 23 -2 40t-4 29h56v-122q0 -73 32 -107.5t108 -34.5q39 0 70.5 10t58 27t47 40t36.5 49v165q0 100 -54.5 142t-159.5 42q-60 0 -113 -13.5t-93 -32.5v46q36 17 91.5 31.5
t118.5 14.5q126 0 193 -55t67 -170v-332h-42z" />
    <glyph glyph-name="uni0E0A" unicode="&#xe0a;" horiz-adv-x="588" 
d="M376 422q28 -10 53.5 -26t45 -40.5t31.5 -58t12 -78.5q0 -56 -16.5 -98.5t-47.5 -71.5t-74 -44t-96 -15q-112 0 -170.5 51.5t-58.5 145.5q0 51 20.5 86t45.5 64t45.5 56.5t20.5 62.5q0 55 -61 55q-23 0 -38.5 -2.5t-27.5 -5.5v44q12 3 28.5 5.5t38.5 2.5q54 0 81 -25.5
t27 -73.5q0 -28 -9.5 -50.5t-24 -42.5t-31.5 -39t-31.5 -40t-24 -45t-9.5 -53q0 -69 44 -109.5t135 -40.5q90 0 137 47t47 135q0 45 -12 76t-32 52.5t-46.5 34.5t-55.5 21v25l128 120h62z" />
    <glyph glyph-name="uni0E0B" unicode="&#xe0b;" horiz-adv-x="593" 
d="M381 422q28 -10 53.5 -26t45 -40.5t31.5 -58t12 -78.5q0 -56 -16.5 -98.5t-47.5 -71.5t-74 -44t-96 -15q-112 0 -170.5 51.5t-58.5 145.5q0 38 10.5 66t26.5 50.5t34.5 42t34.5 41.5t26.5 49t10.5 64h-2q-14 -12 -32.5 -20.5t-44.5 -8.5q-19 0 -38 8.5t-30 19.5v56
q18 -20 35 -30.5t37 -10.5q24 0 40.5 8.5t34.5 24.5h48v-47q0 -39 -10.5 -69t-26 -54t-34 -45t-34 -42.5t-26 -46.5t-10.5 -57q0 -69 44 -109.5t135 -40.5q90 0 137 47t47 135q0 45 -12 76t-32 52.5t-46.5 34.5t-55.5 21v25l128 120h62z" />
    <glyph glyph-name="uni0E0C" unicode="&#xe0c;" horiz-adv-x="976" 
d="M849 547h50v-367q0 -98 -47 -144t-123 -46q-72 0 -121.5 31.5t-85.5 77.5h-2l-7 -99h-42v334q0 49 -9.5 82.5t-29.5 54.5t-52 30.5t-77 9.5q-48 0 -92.5 -7t-80.5 -18v-352q0 -30 6 -49t17 -30t27 -15t36 -4q42 0 72 11v-42q-15 -6 -35.5 -9.5t-40.5 -3.5q-62 0 -97 31
t-35 105v391q51 15 107 26.5t122 11.5q106 0 159 -53.5t53 -165.5v-172q15 -26 35.5 -49.5t46 -41.5t55.5 -28.5t64 -10.5q69 0 98 37.5t29 110.5v363z" />
    <glyph glyph-name="uni0E0D" unicode="&#xe0d;" horiz-adv-x="976" 
d="M849 547h50v-335q0 -49 -15.5 -85t-43.5 -60t-67.5 -35.5t-87.5 -11.5t-87.5 11.5t-67.5 35.5t-43.5 60t-15.5 85v122q0 49 -9.5 82.5t-29.5 54.5t-52 30.5t-77 9.5q-48 0 -92.5 -7t-80.5 -18v-352q0 -30 6 -49t17 -30t27 -15t36 -4q42 0 72 11v-42q-15 -6 -35.5 -9.5
t-40.5 -3.5q-62 0 -97 31t-35 105v391q51 15 107 26.5t122 11.5q106 0 159 -53.5t53 -165.5v-124q0 -148 164 -148t164 148v333zM888 -71q-32 -23 -85.5 -40.5t-117.5 -17.5t-117.5 17.5t-85.5 40.5l19 38q32 -23 77.5 -37t106.5 -14t106.5 14t77.5 37z" />
    <glyph glyph-name="uni0E0E" unicode="&#xe0e;" horiz-adv-x="643" 
d="M521 -233l-158 56q-26 9 -49.5 14.5t-43.5 5.5q-42 0 -68 -18.5t-26 -56.5h-48q0 60 41 91t104 31q23 0 46.5 -5.5t49.5 -14.5l147 -54v521q0 48 -9.5 81t-29.5 53.5t-52.5 30t-77.5 9.5q-51 0 -94 -7t-79 -18v-373q0 -63 -27 -91t-75 -28q-18 0 -32 2t-22 4v41
q20 -5 47 -5t43 17.5t16 62.5v403q51 15 105.5 26.5t123.5 11.5q213 0 213 -215v-575h-45z" />
    <glyph glyph-name="uni0E0F" unicode="&#xe0f;" horiz-adv-x="643" 
d="M496 -233q-48 0 -83.5 20.5t-46.5 57.5q-11 -38 -47 -60t-84 -22q-30 0 -55 8t-45 19v47q21 -14 44.5 -22t55.5 -8q46 0 71 22.5t33 67.5h54q23 -86 103 -86h20v526q0 48 -9.5 81t-29.5 53.5t-52.5 30t-77.5 9.5q-51 0 -94 -7t-79 -18v-373q0 -63 -27 -91t-75 -28
q-18 0 -32 2t-22 4v41q20 -5 47 -5t43 17.5t16 62.5v403q51 15 105.5 26.5t123.5 11.5q213 0 213 -215v-575h-70z" />
    <glyph glyph-name="uni0E10" unicode="&#xe10;" horiz-adv-x="571" 
d="M207 0l-98 209q-10 20 -21.5 41t-19.5 34h65l111 -240q40 4 79.5 22.5t71.5 50t52 75t20 98.5q0 50 -13.5 91t-41 70t-69 44.5t-97.5 15.5q-60 0 -113 -14t-93 -32v46q38 17 92.5 31.5t117.5 14.5q42 0 75.5 -8t61.5 -22l69 67h71l-102 -92q48 -38 70 -93.5t22 -118.5
q0 -65 -23 -115.5t-60.5 -87t-84.5 -58.5t-95 -29h-47zM431 -233l-138 56q-18 8 -42 15t-48 7q-17 0 -32 -4t-27 -13t-19.5 -24t-8.5 -36h-48q0 33 11.5 56.5t30 38.5t43.5 21.5t52 6.5q26 0 52.5 -7t51.5 -18l117 -50v131h50v-180h-45z" />
    <glyph glyph-name="uni0E11" unicode="&#xe11;" horiz-adv-x="649" 
d="M522 0v379q0 69 -26 100.5t-83 31.5q-40 0 -76 -14t-67 -37.5t-56 -54.5t-43 -65t-27.5 -68.5t-9.5 -65.5v-206h-50v207q0 54 17.5 92.5t39 70.5t39 62t17.5 68h-2q-14 -12 -32.5 -20.5t-44.5 -8.5q-19 0 -38 8.5t-30 19.5v56q18 -20 35 -30.5t37 -10.5q24 0 40.5 8.5
t34.5 24.5h41l5 -64q14 13 33 26.5t41.5 24t48 17t52.5 6.5q33 0 61 -9.5t49 -30.5t32.5 -54t11.5 -80v-383h-50z" />
    <glyph glyph-name="uni0E12" unicode="&#xe12;" horiz-adv-x="1061" 
d="M934 547h50v-365q0 -49 -13 -85t-37 -60t-57 -35.5t-73 -11.5q-38 0 -69.5 8.5t-58 23t-48.5 34.5t-41 43h-2l-7 -99h-42v392q0 60 -15.5 90.5t-57.5 30.5q-31 0 -51 -25t-28 -61h-50q-5 18 -11 33.5t-15.5 27t-23.5 18.5t-35 7q-33 0 -60 -17t-46 -49.5t-29 -78
t-10 -102.5q0 -49 10.5 -91t34.5 -73.5t63 -49.5t96 -18q20 0 40 4.5t34 9.5v-46q-17 -5 -38 -8.5t-43 -3.5q-68 0 -115.5 23t-76.5 61.5t-42 88t-13 103.5q0 64 13.5 117.5t38 92t60.5 60t81 21.5q48 0 74.5 -27.5t36.5 -63.5h2q10 36 38.5 63.5t74.5 27.5q57 0 85 -41.5
t28 -119.5v-230q16 -26 37.5 -49.5t48 -41.5t58 -28.5t67.5 -10.5q73 0 105 38.5t32 111.5v361z" />
    <glyph glyph-name="uni0E13" unicode="&#xe13;" horiz-adv-x="979" 
d="M857 0l-7 99h-2q-36 -46 -85.5 -77.5t-121.5 -31.5q-38 0 -69 10t-53.5 31.5t-35 55.5t-12.5 83v164q0 49 -9.5 82.5t-29.5 54.5t-52 30.5t-77 9.5q-48 0 -92.5 -7t-80.5 -18v-352q0 -30 6 -49t17 -30t27 -15t36 -4q42 0 72 11v-42q-15 -6 -35.5 -9.5t-40.5 -3.5
q-62 0 -97 31t-35 105v391q51 15 107 26.5t122 11.5q106 0 159 -53.5t53 -165.5v-164q0 -73 30.5 -105.5t96.5 -32.5q34 0 64 10.5t55.5 28.5t46 41.5t35.5 49.5v381h50v-547h-42z" />
    <glyph glyph-name="uni0E14" unicode="&#xe14;" horiz-adv-x="640" 
d="M510 0v461q-28 20 -68 35t-103 15q-50 0 -92.5 -16.5t-74.5 -48.5t-50 -80t-18 -111q0 -47 11 -87.5t36 -70t64.5 -46.5t96.5 -17q20 0 40 4.5t34 9.5v-46q-17 -5 -38 -8.5t-43 -3.5q-68 0 -116 22.5t-78 59.5t-43.5 84.5t-13.5 98.5q0 71 22.5 127t61 95t90 59.5
t109.5 20.5q73 0 127 -22.5t96 -53.5v-481h-50z" />
    <glyph glyph-name="uni0E15" unicode="&#xe15;" horiz-adv-x="671" 
d="M544 0v392q0 60 -16.5 90.5t-58.5 30.5q-31 0 -52 -25t-29 -61h-50q-5 18 -11 33.5t-16 27t-24.5 18.5t-35.5 7q-33 0 -60.5 -17t-46.5 -49.5t-29.5 -78t-10.5 -102.5q0 -49 10.5 -91t34.5 -73.5t63 -49.5t96 -18q20 0 40 4.5t34 9.5v-46q-17 -5 -38 -8.5t-43 -3.5
q-68 0 -115.5 23t-76.5 61.5t-42 88t-13 103.5q0 64 13.5 117.5t39 92t61.5 60t81 21.5q48 0 75.5 -27.5t37.5 -63.5h2q10 36 39.5 63.5t75.5 27.5q57 0 86 -41.5t29 -119.5v-396h-50z" />
    <glyph glyph-name="uni0E16" unicode="&#xe16;" horiz-adv-x="630" 
d="M503 0v327q0 51 -10 86.5t-32.5 57t-57.5 31t-84 9.5q-54 0 -103.5 -7t-85.5 -18v-352q0 -30 6 -49.5t17.5 -30t28 -14.5t38.5 -4q24 0 43 3.5t33 8.5v-42q-15 -6 -36.5 -10t-43.5 -4q-64 0 -100 30t-36 106v391q51 15 112 26.5t133 11.5q115 0 171.5 -54t56.5 -171v-332
h-50z" />
    <glyph glyph-name="uni0E17" unicode="&#xe17;" horiz-adv-x="649" 
d="M522 0v361q0 73 -33.5 111.5t-105.5 38.5q-39 0 -75 -10.5t-68 -27t-60 -38t-50 -43.5v-392h-50v547h42l7 -99h2q20 18 46.5 37t58.5 35t69.5 26.5t79.5 10.5t76 -11.5t59 -35.5t38.5 -60t13.5 -85v-365h-50z" />
    <glyph glyph-name="uni0E18" unicode="&#xe18;" horiz-adv-x="597" 
d="M79 243h50v-190q32 -8 79.5 -12.5t92.5 -4.5q46 0 81.5 4.5t60 16.5t37.5 33t13 54q0 36 -14.5 59.5t-39.5 38.5t-59.5 23.5t-74.5 14.5q-50 8 -94 16.5t-77 23.5t-52.5 40.5t-19.5 66.5q0 67 64 98.5t173 31.5q55 0 109 -10t92 -25v-47q-38 17 -86.5 27t-111.5 10
q-40 0 -74.5 -3.5t-60 -13t-40.5 -26t-15 -42.5q0 -27 14.5 -43t41 -26t64 -16.5t83.5 -15.5q51 -9 93 -21.5t72 -32.5t46.5 -50.5t16.5 -76.5q0 -86 -63 -120.5t-179 -34.5q-51 0 -109.5 6t-112.5 20v227z" />
    <glyph glyph-name="uni0E19" unicode="&#xe19;" horiz-adv-x="625" 
d="M503 0l-7 99h-2q-16 -20 -37.5 -39.5t-49.5 -35t-63 -25t-77 -9.5t-76.5 10.5t-60 33t-39.5 57t-14 83.5v373h50v-369q0 -73 35.5 -107.5t111.5 -34.5q39 0 72 10.5t61 28t50 40.5t38 47v385h50v-547h-42z" />
    <glyph glyph-name="uni0E1A" unicode="&#xe1a;" horiz-adv-x="628" 
d="M501 547h50v-319q0 -65 -16.5 -110t-47.5 -73.5t-75 -41.5t-98 -13t-98 13t-75 41.5t-47.5 73.5t-16.5 110v319h50v-316q0 -108 47 -151.5t140 -43.5t140 43.5t47 151.5v316z" />
    <glyph glyph-name="uni0E1B" unicode="&#xe1b;" horiz-adv-x="628" 
d="M501 780h50v-552q0 -65 -16.5 -110t-47.5 -73.5t-75 -41.5t-98 -13t-98 13t-75 41.5t-47.5 73.5t-16.5 110v319h50v-316q0 -108 47 -151.5t140 -43.5t140 43.5t47 151.5v549z" />
    <glyph glyph-name="uni0E1C" unicode="&#xe1c;" horiz-adv-x="670" 
d="M536 0l-199 313l-203 -313h-54v444q0 62 28.5 87.5t75.5 25.5q17 0 30.5 -2t21.5 -4v-41q-20 5 -47 5t-43 -15t-16 -59v-238q0 -37 -1 -74.5t-6 -71.5h2q14 30 34 61t39 61l114 177h50l114 -177q19 -30 37 -61t32 -61h2q-5 34 -6 71.5t-1 74.5v344h50v-547h-54z" />
    <glyph glyph-name="uni0E1D" unicode="&#xe1d;" horiz-adv-x="670" 
d="M536 0l-199 313l-203 -313h-54v444q0 62 28.5 87.5t75.5 25.5q17 0 30.5 -2t21.5 -4v-41q-20 5 -47 5t-43 -15t-16 -59v-238q0 -37 -1 -74.5t-6 -71.5h2q14 30 34 61t39 61l114 177h50l114 -177q19 -30 37 -61t32 -61h2q-5 34 -6 71.5t-1 74.5v577h50v-780h-54z" />
    <glyph glyph-name="uni0E1E" unicode="&#xe1e;" horiz-adv-x="736" 
d="M519 0l-109 343l-41 158h-2l-41 -158l-109 -343h-50l-101 441q-6 26 -14.5 53t-19.5 53h60l71 -320l31 -174h2l45 173l102 321h50l102 -321l45 -173h2l31 174l71 320h50l-125 -547h-50z" />
    <glyph glyph-name="uni0E1F" unicode="&#xe1f;" horiz-adv-x="732" 
d="M528 0l-111 343l-41 158h-2l-41 -158l-111 -343h-50l-105 442q-13 53 -35 105h60l75 -320l31 -174h2l45 173l104 321h50l104 -321l45 -173h2l21 174l95 553h48l-136 -780h-50z" />
    <glyph glyph-name="uni0E20" unicode="&#xe20;" horiz-adv-x="643" 
d="M516 0v337q0 48 -9.5 81t-29.5 53.5t-52.5 30t-77.5 9.5q-51 0 -94 -7t-79 -18v-373q0 -63 -27 -91t-75 -28q-18 0 -32 2t-22 4v41q20 -5 47 -5t43 17.5t16 62.5v403q51 15 105.5 26.5t123.5 11.5q213 0 213 -215v-342h-50z" />
    <glyph glyph-name="uni0E21" unicode="&#xe21;" horiz-adv-x="625" 
d="M498 547h50v-365q0 -49 -14 -85t-39.5 -60t-60 -35.5t-76.5 -11.5q-40 0 -73 8.5t-61 23t-51 34.5t-42 43h-2l-7 -99h-42v547h50v-381q16 -26 38.5 -49.5t50.5 -41.5t61 -28.5t71 -10.5q76 0 111.5 38.5t35.5 111.5v361z" />
    <glyph glyph-name="uni0E22" unicode="&#xe22;" horiz-adv-x="620" 
d="M490 547h50v-480q-25 -17 -50.5 -31t-55 -24.5t-65 -16t-80.5 -5.5q-51 0 -92.5 9t-71 28.5t-46 51t-16.5 76.5q0 48 26 82.5t62 51.5v2q-38 13 -61 42.5t-23 81.5q0 63 41.5 101.5t113.5 38.5q31 0 54.5 -5t39.5 -10v-45q-16 6 -39.5 11t-51.5 5q-21 0 -41 -5.5
t-35.5 -17.5t-24.5 -30t-9 -43q0 -45 22.5 -70.5t73.5 -25.5h137v-44h-145q-48 -17 -69 -48.5t-21 -71.5q0 -63 44.5 -91t128.5 -28q69 0 116.5 13.5t87.5 42.5v455z" />
    <glyph glyph-name="uni0E23" unicode="&#xe23;" horiz-adv-x="524" 
d="M61 77q38 -17 86.5 -30t109.5 -13q33 0 62.5 4.5t51 16t34.5 30t13 46.5q0 29 -13 49.5t-36.5 35.5t-55 26.5t-67.5 22.5q-35 10 -69 22.5t-61 30.5t-43.5 43.5t-16.5 61.5q0 60 52 97t149 37q51 0 99.5 -10t77.5 -23v-44q-32 14 -77 23.5t-94 9.5q-159 0 -159 -90
q0 -24 13.5 -41.5t36 -31.5t52.5 -25t63 -21q46 -15 82.5 -29.5t62 -34t39 -45.5t13.5 -64q0 -37 -15.5 -63.5t-43.5 -44t-66 -25.5t-84 -8q-60 0 -110.5 11.5t-85.5 29.5v46z" />
    <glyph glyph-name="uni0E24" unicode="&#xe24;" horiz-adv-x="630" 
d="M503 -223v550q0 51 -10 86.5t-32.5 57t-57.5 31t-84 9.5q-54 0 -103.5 -7t-85.5 -18v-352q0 -30 6 -49.5t17.5 -30t28 -14.5t38.5 -4q24 0 43 3.5t33 8.5v-42q-15 -6 -36.5 -10t-43.5 -4q-64 0 -100 30t-36 106v391q51 15 112 26.5t133 11.5q115 0 171.5 -54t56.5 -171
v-555h-50z" />
    <glyph glyph-name="uni0E25" unicode="&#xe25;" horiz-adv-x="605" 
d="M478 0v289q-89 0 -159.5 -5.5t-119 -21t-74 -45t-25.5 -77.5q0 -54 34 -79t94 -25q26 0 51 4t42 10v-44q-16 -5 -39 -9.5t-55 -4.5q-80 0 -128.5 36t-48.5 110q0 58 28 96t82.5 60.5t134 31t183.5 8.5v10q0 90 -44.5 128.5t-138.5 38.5q-69 0 -122.5 -14t-93.5 -33v46
q36 17 90.5 32t126.5 15q114 0 173 -50.5t59 -156.5v-350h-50z" />
    <glyph glyph-name="uni0E26" unicode="&#xe26;" horiz-adv-x="643" 
d="M516 -223v560q0 48 -9.5 81t-29.5 53.5t-52.5 30t-77.5 9.5q-51 0 -94 -7t-79 -18v-373q0 -63 -27.5 -91t-75.5 -28q-18 0 -32.5 2t-22.5 4v40q20 -5 48 -5q27 0 43.5 17.5t16.5 62.5v404q51 15 105.5 26.5t123.5 11.5q213 0 213 -215v-565h-50z" />
    <glyph glyph-name="uni0E27" unicode="&#xe27;" horiz-adv-x="542" 
d="M56 83q37 -22 78 -34.5t92 -12.5q49 0 88 17t66 48t41.5 75t14.5 98q0 112 -54 174.5t-162 62.5q-54 0 -98.5 -13.5t-81.5 -35.5v47q32 19 78 33.5t103 14.5q64 0 113.5 -20t83.5 -56.5t51 -89t17 -117.5t-17.5 -117.5t-51 -89.5t-81.5 -57t-109 -20q-54 0 -96.5 13.5
t-74.5 32.5v47z" />
    <glyph glyph-name="uni0E28" unicode="&#xe28;" horiz-adv-x="652" 
d="M525 0v316q0 103 -51 149t-148 46t-148 -46t-51 -149v-112q10 18 28 35.5t41.5 31t51.5 21.5t58 8q17 0 34.5 -2.5t28.5 -7.5v-50q-30 12 -63 12q-66 0 -107.5 -26t-71.5 -71v-155h-50v320q0 117 67.5 177t181.5 60q78 0 136 -31l69 68h71l-103 -94q36 -30 56 -75
t20 -105v-320h-50z" />
    <glyph glyph-name="uni0E29" unicode="&#xe29;" horiz-adv-x="638" 
d="M551 299v-71q0 -65 -16.5 -110t-47.5 -73.5t-75 -41.5t-98 -13t-98 13t-75 41.5t-47.5 73.5t-16.5 110v319h50v-316q0 -108 47 -151.5t140 -43.5t140 43.5t47 151.5v68h-164v42h164v206h50v-206h74v-42h-74z" />
    <glyph glyph-name="uni0E2A" unicode="&#xe2a;" horiz-adv-x="605" 
d="M478 0v289q-87 0 -157 -5.5t-119 -21t-75.5 -45t-26.5 -77.5q0 -54 34 -79t94 -25q26 0 51 4t42 10v-44q-16 -5 -39 -9.5t-55 -4.5q-80 0 -128.5 36t-48.5 110q0 60 28 98t82.5 60t134 30t183.5 8v10q0 88 -44.5 127.5t-138.5 39.5q-69 0 -122.5 -14t-93.5 -33v46
q36 17 90.5 32t126.5 15q78 0 131 -28l65 65h71l-98 -90q63 -56 63 -154v-350h-50z" />
    <glyph glyph-name="uni0E2B" unicode="&#xe2b;" horiz-adv-x="625" 
d="M501 0v213q0 46 -10.5 76t-28.5 47.5t-43 24t-53 6.5q-67 0 -127.5 -20.5t-111.5 -46.5v-300h-50v547h50v-203q22 11 51 23t60.5 22t64.5 16.5t64 6.5h10t10 -1l114 136h60l-122 -145q59 -18 85.5 -67t26.5 -113v-222h-50z" />
    <glyph glyph-name="uni0E2C" unicode="&#xe2c;" horiz-adv-x="670" 
d="M536 0l-203 313l-199 -313h-54v547h50v-344q0 -37 -1 -74.5t-6 -71.5h2q14 30 32 61t37 61l114 177h50l114 -177q19 -30 39 -61t34 -61h2q-5 34 -6 71.5t-1 74.5v223q0 30 -6 49t-17 30t-27 15t-36 4q-42 0 -72 -11v42q14 6 34.5 9.5t40.5 3.5l96 99h60l-105 -105
q39 -11 60.5 -42t21.5 -88v-432h-54z" />
    <glyph glyph-name="uni0E2D" unicode="&#xe2d;" horiz-adv-x="614" 
d="M292 36q43 0 82 12t67.5 39t45.5 71.5t17 110.5q0 242 -233 242q-64 0 -114.5 -12.5t-92.5 -30.5v48q39 16 90.5 28.5t117.5 12.5q70 0 123 -20t88.5 -57.5t53 -91t17.5 -119.5q0 -76 -21 -129t-56.5 -86.5t-83 -48.5t-99.5 -15q-55 0 -100.5 13t-77.5 38t-50 61.5
t-18 83.5q0 27 5 62.5t13 60.5h155v-44h-113q-7 -27 -8.5 -47t-1.5 -32q0 -75 49 -112.5t145 -37.5z" />
    <glyph glyph-name="uni0E2E" unicode="&#xe2e;" horiz-adv-x="616" 
d="M292 36q43 0 82 12t67.5 39t45.5 71.5t17 110.5q0 242 -233 242q-64 0 -114.5 -12.5t-92.5 -30.5v48q39 16 90.5 28.5t117.5 12.5q36 0 69.5 -6.5t59.5 -17.5l63 61h71l-93 -84q59 -36 85.5 -98t26.5 -143q0 -76 -21 -129t-56.5 -86.5t-83 -48.5t-99.5 -15
q-55 0 -100.5 13t-77.5 38t-50 61.5t-18 83.5q0 27 5 62.5t13 60.5h155v-44h-113q-7 -27 -8.5 -47t-1.5 -32q0 -75 49 -112.5t145 -37.5z" />
    <glyph glyph-name="uni0E2F" unicode="&#xe2f;" horiz-adv-x="484" 
d="M354 -80v553q-26 -54 -68.5 -88t-109.5 -34q-64 0 -98 33.5t-34 99.5q0 19 4 35.5t8 27.5h51q-4 -10 -8 -23.5t-4 -38.5q0 -16 4 -32t14 -29t25.5 -21t39.5 -8q37 0 65 13.5t49 35t36 48.5t26 55h50v-627h-50z" />
    <glyph glyph-name="uni0E30" unicode="&#xe30;" horiz-adv-x="374" 
d="M166 377q-54 0 -81 21.5t-27 61.5q0 23 10 47h49q-5 -12 -6.5 -22.5t-1.5 -18.5q0 -27 15.5 -36t41.5 -9h144v-44h-144zM166 81q-54 0 -81 21.5t-27 61.5q0 23 10 47h49q-5 -12 -6.5 -22.5t-1.5 -18.5q0 -27 15.5 -36t41.5 -9h144v-44h-144z" />
    <glyph glyph-name="uni0E31" unicode="&#xe31;" 
d="M-212 646q-54 0 -81.5 21.5t-27.5 60.5q0 22 9 48h49q-7 -21 -7 -41q0 -27 15 -36t43 -9h284v-44h-284z" />
    <glyph glyph-name="uni0E32" unicode="&#xe32;" horiz-adv-x="482" 
d="M356 0v347q0 85 -38 125t-110 40q-64 0 -108 -15.5t-76 -33.5v47q31 17 77 32t109 15q40 0 75.5 -11.5t62 -36t42 -63t15.5 -91.5v-355h-49z" />
    <glyph glyph-name="uni0E33" unicode="&#xe33;" horiz-adv-x="482" 
d="M356 0v347q0 85 -38 125t-110 40q-64 0 -108 -15.5t-76 -33.5v47q31 17 77 32t109 15q40 0 75.5 -11.5t62 -36t42 -63t15.5 -91.5v-355h-49zM-50 725q0 32 -18.5 49t-48.5 17t-48.5 -17t-18.5 -49t18.5 -49t48.5 -17t48.5 17t18.5 49zM-5 725q0 -42 -30 -73t-82 -31
t-82 31t-30 73t30 73t82 31t82 -31t30 -73z" />
    <glyph glyph-name="uni0E34" unicode="&#xe34;" 
d="M-529 646v44h451v-44h-451z" />
    <glyph glyph-name="uni0E35" unicode="&#xe35;" 
d="M-529 646v44h403l-2 120h50v-164h-451z" />
    <glyph glyph-name="uni0E36" unicode="&#xe36;" 
d="M-529 646v44h289q-13 20 -13 46q0 37 26 64t71 27q46 0 72 -27t26 -64q0 -36 -26 -63t-72 -27h-373zM-99 736q0 27 -16 41t-41 14q-24 0 -40 -14t-16 -41q0 -26 16 -40t40 -14q25 0 41 14t16 40z" />
    <glyph glyph-name="uni0E37" unicode="&#xe37;" 
d="M-529 646v44h291l-2 120h50v-120h64l-2 120h50v-164h-451z" />
    <glyph glyph-name="uni0E38" unicode="&#xe38;" 
d="M-127 -262v100q0 45 -43 45q-11 0 -22.5 -2t-20.5 -5v40q10 3 26 5.5t30 2.5q35 0 57 -20t22 -62v-104h-49z" />
    <glyph glyph-name="uni0E39" unicode="&#xe39;" 
d="M-127 -82h49v-87q0 -27 -11 -47t-30 -33t-44 -19.5t-52 -6.5t-52 6.5t-44 19.5t-30 33t-11 47v49h-64v38h113v-81q0 -42 21.5 -56.5t66.5 -14.5q46 0 67 14.5t21 56.5v81z" />
    <glyph glyph-name="uni0E3A" unicode="&#xe3a;" 
d="M-56 -120q0 -21 -13.5 -33t-32.5 -12t-32.5 12t-13.5 33t13.5 33t32.5 12t32.5 -12t13.5 -33z" />
    <glyph glyph-name="uni0E3F" unicode="&#xe3f;" horiz-adv-x="600" 
d="M293 -100v100h-211v610h211v100h46v-100q88 0 133.5 -35.5t45.5 -116.5q0 -48 -21 -82.5t-55 -56.5q62 -18 87 -59t25 -95q0 -48 -17.5 -80t-47 -50.5t-68.5 -26.5t-82 -8v-100h-46zM336 44q31 0 61 4t53.5 17t37.5 37t14 63q0 42 -14 66.5t-36 37t-49.5 15.5t-54.5 3
h-214v-243h202zM347 331q12 0 23 -0.5t22 -1.5q34 25 54 54t20 74q0 53 -27 81t-101 28h-204v-235h213z" />
    <glyph glyph-name="uni0E40" unicode="&#xe40;" horiz-adv-x="218" 
d="M84 0v547h49v-547h-49z" />
    <glyph glyph-name="uni0E41" unicode="&#xe41;" horiz-adv-x="412" 
d="M279 0v547h49v-547h-49zM84 0v547h49v-547h-49z" />
    <glyph glyph-name="uni0E42" unicode="&#xe42;" horiz-adv-x="298" 
d="M154 0v587q0 76 -37 126.5t-115 69.5v47q38 20 89.5 34.5t114.5 14.5q58 0 101.5 -6t75.5 -14v-46q-37 11 -83.5 16.5t-94.5 5.5t-88 -6.5t-71 -20.5q78 -22 118 -81t40 -140v-587h-50z" />
    <glyph glyph-name="uni0E43" unicode="&#xe43;" horiz-adv-x="298" 
d="M154 0v515q0 34 21 61.5t46.5 53t46.5 52t21 59.5q0 48 -34 71t-85 23q-20 0 -42.5 -4.5t-44.5 -12t-41.5 -17.5t-34.5 -22v44q25 19 68 37.5t94 18.5q84 0 127 -38.5t43 -99.5q0 -40 -21 -69t-46.5 -55t-46.5 -52t-21 -59v-506h-50z" />
    <glyph glyph-name="uni0E44" unicode="&#xe44;" horiz-adv-x="298" 
d="M154 0v546q0 88 33.5 161.5t94.5 120.5l-1 2q-45 -24 -85.5 -34t-73.5 -10q-38 0 -76.5 12.5t-58.5 30.5v46q28 -20 60.5 -32.5t78.5 -12.5q48 0 83.5 11t72.5 34h51v-50q-73 -57 -101 -122.5t-28 -148.5v-554h-50z" />
    <glyph glyph-name="uni0E45" unicode="&#xe45;" horiz-adv-x="482" 
d="M356 -223v570q0 85 -38 125t-110 40q-64 0 -108 -15.5t-76 -33.5v47q31 17 77 32t109 15q40 0 75.5 -11.5t62 -36t42 -63t15.5 -91.5v-578h-49z" />
    <glyph glyph-name="uni0E46" unicode="&#xe46;" horiz-adv-x="608" 
d="M476 -213v593q0 32 -4.5 54t-13.5 36.5t-22.5 22.5t-31.5 12l-109 -79l-109 80q-30 -18 -51 -46t-21 -73q0 -33 9 -54t24.5 -32.5t36.5 -16t45 -4.5q37 0 61 8v-41q-10 -4 -26.5 -6.5t-35.5 -2.5q-89 0 -126.5 40.5t-37.5 109.5q0 31 10 57.5t27 48t39.5 37.5t47.5 27
l106 -82l106 81q28 -8 51 -19.5t39.5 -30.5t26 -47t9.5 -70v-603h-50z" />
    <glyph glyph-name="uni0E47" unicode="&#xe47;" 
d="M-179 646q-73 0 -96 68q-14 -35 -36 -53.5t-57 -18.5q-54 0 -83.5 31t-29.5 86q0 60 36 88t102 28h229v-43h-226q-48 0 -70 -18.5t-22 -54.5q0 -21 6 -35t15.5 -22.5t21 -12.5t22.5 -4q35 0 48.5 20t18.5 46h49q4 -26 22 -44t56 -18h59v-43h-65z" />
    <glyph glyph-name="uni0E48" unicode="&#xe48;" 
d="M-128 869v152h50v-152h-50z" />
    <glyph glyph-name="uni0E49" unicode="&#xe49;" 
d="M-244 869v33q16 3 32.5 9.5t29.5 16.5t21.5 23t8.5 30q0 36 -42 36q-12 0 -25 -3t-21 -7v42q11 4 26.5 6.5t29.5 2.5q40 0 59.5 -18.5t19.5 -52.5q0 -27 -15.5 -45.5t-38.5 -32.5l183 3v-43h-268z" />
    <glyph glyph-name="uni0E4A" unicode="&#xe4a;" 
d="M-77 869v55q0 24 -5 38.5t-25 14.5t-29 -14.5t-13 -34.5h-46q-4 20 -13 34.5t-29 14.5t-25 -14.5t-5 -38.5v-55h-49v52q0 44 17 72.5t58 28.5q51 0 69 -54q18 54 69 54q42 0 61 -30.5t12 -81.5l79 2v-43h-126z" />
    <glyph glyph-name="uni0E4B" unicode="&#xe4b;" 
d="M-81 964l2 -95h-48l2 95l-100 -2v46l100 -2l-2 95h48l-2 -95l99 2v-46z" />
    <glyph glyph-name="uni0E4C" unicode="&#xe4c;" 
d="M-148 860q-26 0 -40 -8t-14 -35q0 -8 1.5 -17.5t6.5 -21.5h-49q-10 24 -10 45q0 40 25.5 60.5t79.5 20.5h134v-44h-134z" />
    <glyph glyph-name="uni0E4D" unicode="&#xe4d;" 
d="M-50 725q0 32 -18.5 49t-48.5 17t-48.5 -17t-18.5 -49t18.5 -49t48.5 -17t48.5 17t18.5 49zM-5 725q0 -42 -30 -73t-82 -31t-82 31t-30 73t30 73t82 31t82 -31t30 -73z" />
    <glyph glyph-name="uni0E4E" unicode="&#xe4e;" horiz-adv-x="1170" 
d="M1070 555v-555l-485 -276l-485 276v555l485 277zM614 779l310 -479l93 248zM153 548l93 -248l310 479zM129 18l98 251v2l-98 261v-514zM556 -230l-310 469l-93 -239zM261 269l324 -492l324 492l-324 501zM1018 0l-94 239l-310 -469zM1041 532l-98 -263l98 -251v514z
M415 300q2 -2 5 -4t4 -4q0 -5 1 -8q-20 -23 -36.5 -29t-25.5 -6q18 12 32.5 28.5t19.5 22.5zM450 199q8 0 10 -14t-1 -27q-5 -14 -14 -19.5t-21 -5.5q-15 1 -22.5 10.5t-10.5 21.5t-4 22.5t-2 15.5q-2 8 -2 19t-1 23h1q8 3 18 9.5t21 17.5q4 -19 2.5 -38t-4.5 -33
q-1 -4 -1.5 -11t0.5 -13.5t2.5 -12.5t5.5 -7q7 -2 9 3t3 8q1 8 -1.5 10.5t-4.5 6.5q-2 5 5.5 9.5t11.5 4.5zM558 212q1 1 1.5 4t2.5 6q1 4 3 8q-1 -2 -0.5 -8.5t0.5 -14.5q0 -9 1 -19q-6 1 -11 6q-3 2 -4 3q1 2 3 5q1 2 2 5t2 5zM765 173q2 5 5 8t5 9v-6v-6t-2 -8
q-3 -8 -5 -22t-2 -22q2 -8 2.5 -14t-4.5 -8q1 1 1 4q0 2 -2 12q-5 11 -3 30q1 4 2 11t3 12zM553 125q4 -4 9 -2q3 0 6 2q0 -8 1.5 -13.5t-0.5 -10.5q-1 3 -4 7t-9 2q-3 0 -7 -8q-2 8 -8 8q-5 0 -6.5 -3t-3.5 -6l-4 6l-6 3q-3 0 -5.5 -3.5t-4.5 -5.5q-2 7 2 22q1 3 0.5 8.5
t-0.5 10.5q-1 6 -1 13q14 -6 25 -16t16 -14zM576 168q2 2 10 2q1 -4 -2 -13q-8 6 -8 11zM568 155q2 2 6 1t7 -3l-2 -4q-1 -2 -2 -3t-2 -3q-7 5 -7 12zM562 141q2 1 10 -3q-5 -5 -9 -6q-2 2 -3.5 5t0.5 3zM558 106q5 2 7 -6q-2 -4 -13 -6q2 12 6 12zM541 105q2 0 3 -3.5
t3 -7.5h-6h-8q0 4 2.5 7.5t5.5 3.5zM524 104q4 -4 4 -9q-10 2 -13 4q6 8 7 7zM748 106q3 1 7 -6q-2 -2 -5 -3.5t-9 -2.5q3 12 7 12zM730 105q2 0 4 -3.5t3 -7.5h-6h-8q1 4 3 7.5t4 3.5zM713 105q3 -3 5 -10q-5 2 -8.5 2.5t-5.5 1.5q3 8 6 7zM798 241q1 -3 3 -7q1 -3 2 -7.5
t1 -9.5t-1 -9.5t-2 -8.5l-2 -8q-3 4 -6 10q-2 5 -3.5 14t-0.5 23q1 15 0 28q-1 11 -2.5 23t-4.5 20q-2 -13 -5 -24l-4 -20t-4 -15q-3 -10 -1.5 -24t3.5 -21q2 -8 -3 -13t-9 -16q-3 -8 -4.5 -17t-1.5 -14q0 -7 1 -15.5t5 -17.5q2 -8 0 -10q-2 3 -4.5 6t-7.5 2q-4 0 -8 -8
q-2 8 -9 8q-5 0 -10 -7l-2 6l-7 2q-4 0 -6.5 -3t-4.5 -6q-2 4 -1 9q4 17 7.5 38t-2.5 34q-3 6 -10 14.5t-14.5 19t-13 22t-6.5 25.5q-1 -1 -2 -4q-2 -6 2 -17q-12 -2 -25 -1q-12 1 -27.5 3t-33.5 8q0 2 1 5q1 2 1.5 5.5t2.5 8.5q-2 -4 -6 -8q-3 -4 -6.5 -10.5t-5.5 -15.5
q-2 -6 -8 -19.5t-8 -18.5t7 -11.5t14 -8.5l8 -2t7 -3q-6 0 -9 -5v-2q0 -3 4 -9q-8 2 -10 -2l-1 -4q0 -5 3 -8h-7l-5 -2q-2 -7 2 -12q-2 2 -5 3.5t-7 4.5q-5 4 -11.5 9t-13 9.5t-12 7.5t-7.5 3q-4 2 -10 8.5t-5 23.5q1 8 3 22t3.5 28.5t3.5 27t3 17.5q-2 0 -3 -2
q-1 -1 -5 -11l-16 25q5 3 8.5 8t5.5 9l6 -9l4 -6l4 3q0 1 4.5 6.5t6.5 11.5q5 12 7 27l1.5 7.5t1.5 4.5l3 7l5 12.5t4.5 16t0 17t-8.5 16.5q-8 7 -15.5 9.5t-14.5 2.5q-8 0 -15 -2l5 -0.5t11 -2t12.5 -4t10.5 -7.5q8 -9 8 -22q0 -10 -3.5 -18t-5.5 -16l-3 -7q-1 -2 -1.5 -5
t-2.5 -8q-2 -12 -5 -26q-2 -2 -4.5 -6t-4.5 -7q-3 3 -7 11q-2 4 -4 7l-3 -5q-2 -3 -6.5 -10.5t-9.5 -10.5q-7 -3 -12 -5t-9 -6q-2 -2 -4.5 -5t-4.5 -11q-1 -3 -2.5 -4.5l-3.5 -3.5t-4 -2v2q0 1 -0.5 2.5t-0.5 3.5q-1 2 -0.5 5t0.5 5v4l-16 13l-3 -2q-4 -6 -9 -12
q-5 -5 -11 -12t-13 -14q-1 2 -1 3.5t-1 3.5q-1 -2 -5 -4q-3 -2 -8 -3.5t-13 -1.5q15 11 21 19q3 4 3 6q-1 9 -1 17.5v15.5q0 8 1 16q-1 7 -1.5 22t1.5 23t4.5 15.5t7.5 23.5q6 14 15 18q4 2 10 2q5 6 10 11t10.5 8.5t12.5 4.5q21 2 36.5 -1t28.5 -1q6 1 16 3t21.5 4t22.5 3
t20 0q8 -1 25 -4.5t36.5 -9t37.5 -12.5t29 -15q10 -9 22.5 -19.5t23.5 -24.5t19.5 -31.5t10.5 -40.5t3 -38t2 -24v-17zM450 383q0 2 1.5 3.5l3.5 3.5t4 5q-2 1 -5 1q-6 0 -10 -5q-4 -3 -4 -11q0 -4 1 -7l3 3q2 2 3 3.5t3 3.5zM521 423q-4 6 -8 8t-9 3t-10 0q18 -5 22 -16
q2 -10 2 -17q0 -5 -1 -10q3 5 5 10t2 10.5t-3 11.5z" />
    <glyph glyph-name="uni0E4F" unicode="&#xe4f;" horiz-adv-x="580" 
d="M520 248q0 -50 -18.5 -91.5t-50 -71.5t-73.5 -47t-88 -17q-47 0 -88.5 17t-73 47t-50 71.5t-18.5 91.5q0 49 18.5 90.5t50 71.5t73 46.5t88.5 16.5q46 0 88 -16.5t73.5 -46.5t50 -71.5t18.5 -90.5zM290 56q40 0 74.5 15t60.5 41t41 61t15 75q0 39 -15 73.5t-41 60.5
t-60.5 41t-74.5 15q-39 0 -74 -15t-61 -41t-41 -60.5t-15 -73.5q0 -40 15 -75t41 -61t61 -41t74 -15zM290 156q38 0 64.5 26.5t26.5 64.5t-26.5 64.5t-64.5 26.5t-64.5 -26.5t-26.5 -64.5t26.5 -64.5t64.5 -26.5zM290 113q-28 0 -52.5 10.5t-42.5 29t-28.5 43t-10.5 52.5
q0 27 10.5 51t28.5 42.5t42.5 29t52.5 10.5t52.5 -10.5t42.5 -29t28.5 -42.5t10.5 -51q0 -28 -10.5 -52.5t-28.5 -43t-42.5 -29t-52.5 -10.5z" />
    <glyph glyph-name="uni0E50" unicode="&#xe50;" horiz-adv-x="608" 
d="M564 240q0 -51 -18.5 -96.5t-52.5 -79.5t-82 -54t-107 -20t-107 20t-82 54t-52.5 79.5t-18.5 96.5t18.5 96.5t52.5 79.5t82 54t107 20t107 -20t82 -54t52.5 -79.5t18.5 -96.5zM514 240q0 45 -14.5 83t-41.5 65.5t-66 42.5t-88 15t-88 -15t-66 -42.5t-41.5 -65.5
t-14.5 -83t14.5 -83t41.5 -65.5t66 -42.5t88 -15t88 15t66 42.5t41.5 65.5t14.5 83z" />
    <glyph glyph-name="uni0E51" unicode="&#xe51;" horiz-adv-x="603" 
d="M253 -41v41h29q51 0 92.5 14t71.5 42.5t46.5 71.5t16.5 100q0 54 -15.5 95t-43 68t-66.5 41t-86 14t-85.5 -12.5t-65.5 -35t-42 -54t-15 -68.5q0 -72 39.5 -104.5t105.5 -32.5q22 0 45 3t46 11v-42q-16 -6 -44.5 -11t-54.5 -5q-40 0 -74 12t-58.5 35t-38.5 56t-14 76
q0 49 18.5 88.5t52 68t80.5 44t104 15.5q58 0 106 -16.5t82.5 -49.5t54 -82.5t19.5 -114.5q0 -64 -21 -113.5t-57.5 -84t-87.5 -52.5t-111 -18h-29z" />
    <glyph glyph-name="uni0E52" unicode="&#xe52;" horiz-adv-x="681" 
d="M567 344q0 42 -12 64t-40 33l-93 -70l-99 70q-26 -10 -46 -39t-20 -71q0 -51 22 -79t79 -28q25 0 45 6v-44q-23 -6 -49 -6q-70 0 -107.5 37t-37.5 109q0 69 34 107t86 55l93 -68l89 68q58 -14 82 -52.5t24 -87.5v-323q-33 -9 -62.5 -15.5t-59 -11t-61.5 -6.5t-69 -2
q-146 0 -222.5 34.5t-76.5 115.5v450h50v-444q0 -33 17.5 -54.5t49.5 -34.5t78.5 -18t104.5 -5q60 0 105 5t96 16v289z" />
    <glyph glyph-name="uni0E53" unicode="&#xe53;" horiz-adv-x="640" 
d="M526 0v326q0 68 -24 94t-70 26q-45 0 -67 -34t-22 -88v-115h-48v115q0 54 -22 88t-67 34q-46 0 -70 -26t-24 -94v-184q0 -61 25.5 -85.5t70.5 -24.5q24 0 43 3.5t33 8.5v-40q-15 -6 -36.5 -10t-43.5 -4q-64 0 -103 35t-39 111v195q0 42 10.5 72t28.5 49.5t42 28.5t51 9
q48 0 81 -25t44 -65q11 40 43.5 65t80.5 25q27 0 51 -9t42.5 -28.5t29 -49.5t10.5 -72v-331h-50z" />
    <glyph glyph-name="uni0E54" unicode="&#xe54;" horiz-adv-x="568" 
d="M483 0q-46 0 -83.5 11.5t-62.5 35.5q-23 -19 -54 -33t-56 -14h-42q-26 15 -51 37.5t-45 52t-32.5 66.5t-12.5 81q0 54 15.5 99t47.5 77.5t80 50.5t113 18h110q48 0 69.5 13t21.5 56v39h44q2 -11 3.5 -22.5t1.5 -27.5q0 -49 -30 -75.5t-106 -26.5h-114q-54 0 -92.5 -14.5
t-64 -41t-37.5 -64t-12 -83.5q0 -61 29 -112.5t83 -80.5h21q25 0 46.5 9.5t41.5 24.5q-18 30 -18 74q0 64 39 94.5t99 30.5q22 0 44 -5v-37h-34q-45 0 -71.5 -21.5t-26.5 -61.5q0 -57 30.5 -82.5t105.5 -25.5h54v-42h-54z" />
    <glyph glyph-name="uni0E55" unicode="&#xe55;" horiz-adv-x="573" 
d="M488 0q-46 0 -83.5 11.5t-62.5 35.5q-23 -19 -54 -33t-56 -14h-47q-26 15 -51 37.5t-45 52t-32.5 66.5t-12.5 81q0 49 13 90.5t39 73t65.5 52t92.5 26.5q-15 21 -15 49q0 36 25.5 62.5t70.5 26.5t69.5 -26.5t24.5 -62.5q0 -26 -13 -46q48 0 69 13t21 56v39h44
q2 -11 3.5 -22.5t1.5 -27.5q0 -49 -30 -75.5t-106 -26.5h-119q-54 0 -92.5 -14.5t-64 -41t-37.5 -64t-12 -83.5q0 -61 29 -112.5t83 -80.5h26q25 0 46.5 9.5t41.5 24.5q-18 30 -18 74q0 64 39 94.5t99 30.5q22 0 44 -5v-37h-34q-45 0 -71.5 -21.5t-26.5 -61.5
q0 -57 30.5 -82.5t105.5 -25.5h54v-42h-54zM335 479q22 0 35.5 12.5t13.5 36.5t-13.5 37t-35.5 13q-23 0 -37 -13t-14 -37t14 -36.5t37 -12.5z" />
    <glyph glyph-name="uni0E56" unicode="&#xe56;" horiz-adv-x="599" 
d="M123 231q-5 -13 -8.5 -30.5t-3.5 -35.5q0 -27 12 -51t35.5 -41.5t58.5 -28t80 -10.5q94 0 151 52.5t57 155.5q0 42 -12.5 79t-36 65t-58 44t-78.5 16q-67 0 -113 -24t-75 -60h-41q-10 64 -34.5 120.5t-42.5 107.5h54l56 -183q31 33 81.5 58t116.5 25q51 0 93.5 -19.5
t73.5 -53t48.5 -78.5t17.5 -97q0 -61 -18.5 -108t-52.5 -79t-82 -48.5t-106 -16.5q-53 0 -96 11.5t-74 34t-48 55t-17 73.5q0 18 3 37t7 30h52z" />
    <glyph glyph-name="uni0E57" unicode="&#xe57;" horiz-adv-x="746" 
d="M630 610h50v-475q0 -42 -10 -69.5t-27 -44.5t-39.5 -24t-46.5 -7q-35 0 -60.5 5.5t-49.5 14.5v336q0 54 -18 77t-53 23q-73 0 -73 -92v-65h-48v65q0 92 -73 92q-35 0 -52.5 -23t-17.5 -77v-204q0 -61 25.5 -85.5t70.5 -24.5q24 0 43 3.5t33 8.5v-40q-15 -6 -36.5 -10
t-43.5 -4q-64 0 -103 35t-39 111v215q0 72 32.5 105.5t83.5 33.5q36 0 63.5 -19.5t37.5 -50.5q10 31 37.5 50.5t63.5 19.5q51 0 83 -33.5t32 -105.5v-312q12 -4 22.5 -5.5t27.5 -1.5q52 0 68.5 26t16.5 80v472z" />
    <glyph glyph-name="uni0E58" unicode="&#xe58;" horiz-adv-x="642" 
d="M185 0q-26 15 -51 37.5t-45 52t-32.5 66.5t-12.5 81q0 54 15.5 99t47.5 77.5t80 50.5t113 18h130q48 0 69.5 13t21.5 56v39h44q2 -11 3.5 -22.5t1.5 -27.5q0 -49 -30 -75.5t-106 -26.5h-134q-54 0 -92.5 -14.5t-64 -41t-37.5 -64t-12 -83.5q0 -61 29 -112.5t83 -80.5h11
q39 0 66.5 34.5t32.5 92.5h50q5 -58 30 -95.5t79 -37.5q16 0 30.5 5.5t25 18t16.5 33t6 51.5q0 61 -20.5 86t-65.5 25q-11 0 -20 -1.5t-18 -3.5v42q18 5 42 5q69 0 98 -40t29 -112q0 -68 -27.5 -110.5t-94.5 -42.5q-57 0 -91.5 29.5t-42.5 83.5q-14 -54 -47.5 -79.5
t-75.5 -25.5h-34z" />
    <glyph glyph-name="uni0E59" unicode="&#xe59;" horiz-adv-x="612" 
d="M471 0l-180 361q-17 35 -39.5 58t-60.5 23q-34 0 -56.5 -22.5t-22.5 -83.5v-194q0 -61 25.5 -85.5t70.5 -24.5q24 0 43 3.5t33 8.5v-40q-15 -6 -36.5 -10t-43.5 -4q-64 0 -103 35t-39 111v205q0 39 10 67.5t27.5 46.5t40 26.5t46.5 8.5q77 0 119 -63q15 27 37.5 45
t59.5 18q27 0 45 -9.5t29.5 -25t16.5 -35.5t5 -42v-36q18 0 30 2t19 8.5t10 19t3 32.5v166h44v-170q0 -59 -26.5 -78.5t-76.5 -19.5h-45v75q0 32 -10.5 51t-46.5 19q-26 0 -44 -15.5t-27 -41.5l12 -22l182 -368h-51z" />
    <glyph glyph-name="uni0E5B" unicode="&#xe5b;" horiz-adv-x="1180" 
d="M1136 186q-25 0 -51 7.5t-48.5 23t-40 38t-24.5 52.5l-33 -184h-48l-95 213l-42 -238h-48l-99 236q-4 -47 -23.5 -100.5t-56 -99t-91 -75.5t-128.5 -30q-49 0 -93.5 15.5t-79 48t-55 81.5t-20.5 115q0 63 17 107.5t46.5 73.5t67.5 42.5t80 13.5q34 0 65 -9.5t54.5 -30
t37 -51.5t13.5 -73q0 -36 -13 -63.5t-35 -46t-51.5 -28t-61.5 -9.5v43q22 0 42.5 6t36 19t25 33t9.5 48q0 55 -29.5 86.5t-92.5 31.5q-72 0 -116.5 -46t-44.5 -147q0 -110 54 -162t145 -52q61 0 108.5 24.5t80.5 66t50 97t17 117.5q0 17 -1.5 33t-3.5 33l-1 4h48l113 -272
l42 235h48l95 -214l34 186h48l-1 -3q10 -48 28.5 -78t40 -46.5t43 -22t38.5 -5.5v-44z" />
    <glyph glyph-name="endash" unicode="&#x2013;" horiz-adv-x="466" 
d="M36 284v44h394v-44h-394z" />
    <glyph glyph-name="emdash" unicode="&#x2014;" horiz-adv-x="766" 
d="M36 284v44h694v-44h-694z" />
    <glyph glyph-name="quoteleft" unicode="&#x2018;" horiz-adv-x="219" 
d="M163 646q-8 -9 -16.5 -22t-16 -28.5t-12.5 -32.5t-5 -33q19 2 33 -11t14 -32t-13 -31t-34 -12q-26 0 -38.5 16t-12.5 39q0 26 7.5 50t19 44t24 36t23.5 27z" />
    <glyph glyph-name="quoteright" unicode="&#x2019;" horiz-adv-x="219" 
d="M56 454q7 9 16 22.5t16.5 28.5t12.5 31.5t5 33.5q-19 -2 -33 11t-14 32t13 31t34 12q26 0 38.5 -16t12.5 -39q0 -27 -8 -50.5t-19 -43.5t-24 -36t-23 -27z" />
    <glyph glyph-name="quotesinglbase" unicode="&#x201a;" horiz-adv-x="219" 
d="M56 -120q7 9 16 22.5t16.5 28.5t12.5 31.5t5 33.5q-19 -2 -33 11t-14 32t13 31t34 12q26 0 38.5 -16t12.5 -39q0 -27 -8 -50.5t-19 -43.5t-24 -36t-23 -27z" />
    <glyph glyph-name="quotedblleft" unicode="&#x201c;" horiz-adv-x="360" 
d="M304 646q-8 -9 -16.5 -22t-16 -28.5t-12.5 -32.5t-5 -33q19 2 33 -11t14 -32t-13 -31t-34 -12q-26 0 -38.5 16t-12.5 39q0 26 7.5 50t19 44t24 36t23.5 27zM163 646q-8 -9 -16.5 -22t-16 -28.5t-12.5 -32.5t-5 -33q19 2 33 -11t14 -32t-13 -31t-34 -12q-26 0 -38.5 16
t-12.5 39q0 26 7.5 50t19 44t24 36t23.5 27z" />
    <glyph glyph-name="quotedblright" unicode="&#x201d;" horiz-adv-x="360" 
d="M56 454q7 9 16 22.5t16.5 28.5t12.5 31.5t5 33.5q-19 -2 -33 11t-14 32t13 31t34 12q26 0 38.5 -16t12.5 -39q0 -27 -8 -50.5t-19 -43.5t-24 -36t-23 -27zM197 454q7 9 16 22.5t16.5 28.5t12.5 31.5t5 33.5q-19 -2 -33 11t-14 32t13 31t34 12q26 0 38.5 -16t12.5 -39
q0 -27 -8 -50.5t-19 -43.5t-24 -36t-23 -27z" />
    <glyph glyph-name="quotedblbase" unicode="&#x201e;" horiz-adv-x="360" 
d="M56 -120q7 9 16 22.5t16.5 28.5t12.5 31.5t5 33.5q-19 -2 -33 11t-14 32t13 31t34 12q26 0 38.5 -16t12.5 -39q0 -27 -8 -50.5t-19 -43.5t-24 -36t-23 -27zM197 -120q7 9 16 22.5t16.5 28.5t12.5 31.5t5 33.5q-19 -2 -33 11t-14 32t13 31t34 12q26 0 38.5 -16t12.5 -39
q0 -27 -8 -50.5t-19 -43.5t-24 -36t-23 -27z" />
    <glyph glyph-name="dagger" unicode="&#x2020;" horiz-adv-x="480" 
d="M215 -260v654h-175v46h175v210h50v-210h175v-46h-175v-654h-50z" />
    <glyph glyph-name="daggerdbl" unicode="&#x2021;" horiz-adv-x="480" 
d="M215 -260v210h-175v46h175v398h-175v46h175v210h50v-210h175v-46h-175v-398h175v-46h-175v-210h-50z" />
    <glyph glyph-name="bullet" unicode="&#x2022;" horiz-adv-x="352" 
d="M176 207q-23 0 -43 8.5t-35 23.5t-23.5 35t-8.5 43t8.5 43t23.5 35t35 23.5t43 8.5t43 -8.5t35 -23.5t23.5 -35t8.5 -43t-8.5 -43t-23.5 -35t-35 -23.5t-43 -8.5z" />
    <glyph glyph-name="ellipsis" unicode="&#x2026;" horiz-adv-x="624" 
d="M150 37q0 -20 -13.5 -31.5t-32.5 -11.5t-32.5 11.5t-13.5 31.5t13.5 31.5t32.5 11.5t32.5 -11.5t13.5 -31.5zM358 37q0 -20 -13.5 -31.5t-32.5 -11.5t-32.5 11.5t-13.5 31.5t13.5 31.5t32.5 11.5t32.5 -11.5t13.5 -31.5zM566 37q0 -20 -13.5 -31.5t-32.5 -11.5
t-32.5 11.5t-13.5 31.5t13.5 31.5t32.5 11.5t32.5 -11.5t13.5 -31.5z" />
    <glyph glyph-name="perthousand" unicode="&#x2030;" horiz-adv-x="1020" 
d="M88 0l458 610h46l-456 -610h-48zM185 330q-33 0 -58 11.5t-42.5 31.5t-26 46.5t-8.5 55.5t8.5 55.5t26 46.5t42.5 31.5t58 11.5t58 -11.5t42.5 -31.5t26 -46.5t8.5 -55.5t-8.5 -55.5t-26 -46.5t-42.5 -31.5t-58 -11.5zM185 363q46 0 71 29t25 83t-25 83t-71 29t-71 -29
t-25 -83t25 -83t71 -29zM495 -10q-33 0 -58 11.5t-42.5 31.5t-26 46.5t-8.5 55.5t8.5 55.5t26 46.5t42.5 31.5t58 11.5t58 -11.5t42.5 -31.5t26 -46.5t8.5 -55.5t-8.5 -55.5t-26 -46.5t-42.5 -31.5t-58 -11.5zM495 23q46 0 71 29t25 83t-25 83t-71 29t-71 -29t-25 -83
t25 -83t71 -29zM835 -10q-33 0 -58 11.5t-42.5 31.5t-26 46.5t-8.5 55.5t8.5 55.5t26 46.5t42.5 31.5t58 11.5t58 -11.5t42.5 -31.5t26 -46.5t8.5 -55.5t-8.5 -55.5t-26 -46.5t-42.5 -31.5t-58 -11.5zM835 23q46 0 71 29t25 83t-25 83t-71 29t-71 -29t-25 -83t25 -83t71 -29
z" />
    <glyph glyph-name="guilsinglleft" unicode="&#x2039;" horiz-adv-x="260" 
d="M165 64l-139 206l139 209h49l-140 -208l140 -207h-49z" />
    <glyph glyph-name="guilsinglright" unicode="&#x203a;" horiz-adv-x="260" 
d="M46 64l140 207l-140 208h49l139 -209l-139 -206h-49z" />
    <glyph glyph-name="fraction" unicode="&#x2044;" horiz-adv-x="240" 
d="M-132 0l458 610h46l-456 -610h-48z" />
    <glyph glyph-name="Euro" unicode="&#x20ac;" horiz-adv-x="600" 
d="M567 45q-23 -22 -61 -40.5t-96 -18.5q-49 0 -92 15.5t-77 45t-58 73t-34 99.5h-87v42h82q-1 10 -2 20.5t-1 21.5q0 28 4 51h-83v42h89q23 106 91 165t164 59q58 0 94 -18t59 -39l-11 -50q-26 29 -58.5 44.5t-78.5 15.5q-79 0 -133.5 -44.5t-74.5 -132.5h254l-9 -42h-252
q-3 -24 -3 -51q0 -11 0.5 -21.5t1.5 -20.5h240l-9 -42h-225q19 -94 76 -140t138 -46q46 0 80.5 16.5t60.5 45.5z" />
    <glyph glyph-name="trademark" unicode="&#x2122;" horiz-adv-x="758" 
d="M666 280l-23 172l-4 85l-102 -257h-46l-102 257l-4 -85l-23 -172h-46l42 330h46l110 -276l110 276h46l42 -330h-46zM139 280v289l-107 -1v42h260v-42l-107 1v-289h-46z" />
    <glyph glyph-name="Omega" unicode="&#x2126;" horiz-adv-x="678" 
d="M390 0v40q37 27 71 60t60 71.5t41.5 81.5t15.5 91q0 45 -11.5 86.5t-39.5 73.5t-73.5 51t-114.5 19t-114.5 -19t-73.5 -51t-39.5 -73.5t-11.5 -86.5q0 -48 15.5 -91t41.5 -81.5t60 -71.5t71 -60v-40h-216v42h159q-35 21 -67.5 52.5t-58 71t-40.5 85t-15 95.5
q0 54 15.5 104t50 87.5t89.5 60t134 22.5t134 -22.5t89.5 -60t50 -87.5t15.5 -104q0 -50 -15 -95.5t-40.5 -85t-58 -71t-67.5 -52.5h159v-42h-216z" />
    <glyph glyph-name="estimated" unicode="&#x212e;" horiz-adv-x="856" 
d="M745 130q-54 -63 -134 -101t-177 -38q-83 0 -155 28t-125 77t-83.5 114t-30.5 139q0 75 30 140t82.5 114t123.5 77t154 28q82 0 153.5 -28t124 -77t82.5 -114t30 -140v-14h-628q-5 0 -5 -4v-185q0 -11 2 -17.5t6 -11.5q45 -51 106.5 -73.5t133.5 -22.5q156 0 252 109h58z
M673 551q0 15 -2.5 22t-8.5 14q-46 45 -102.5 68t-128.5 23q-141 0 -235 -97q-9 -9 -9 -29v-187q0 -6 5 -6h476q5 0 5 6v186z" />
    <glyph glyph-name="partialdiff" unicode="&#x2202;" horiz-adv-x="560" 
d="M196 663q55 0 110 -25.5t99 -72.5t71.5 -113t27.5 -147q0 -80 -17.5 -139t-49 -98t-75.5 -58.5t-97 -19.5q-46 0 -86 15t-69.5 43t-46.5 67.5t-17 89.5q0 39 11.5 75.5t37 65.5t65.5 46.5t96 17.5q33 0 63 -8t55.5 -20t46 -27t35.5 -29q0 62 -23 115.5t-60.5 93.5
t-84 62.5t-92.5 22.5v43zM456 272q-38 45 -87.5 69.5t-110.5 24.5q-46 0 -77 -14t-50.5 -37.5t-28 -53t-8.5 -59.5q0 -43 14.5 -74.5t38.5 -52.5t54.5 -31t62.5 -10q93 0 138.5 63t53.5 175z" />
    <glyph glyph-name="Delta" unicode="&#x2206;" horiz-adv-x="598" 
d="M52 0v40l220 610h54l220 -610v-40h-494zM299 591l-195 -545h390z" />
    <glyph glyph-name="product" unicode="&#x220f;" horiz-adv-x="638" 
d="M502 -215v822h-366v-822h-48v865h462v-865h-48z" />
    <glyph glyph-name="summation" unicode="&#x2211;" horiz-adv-x="541" 
d="M44 -215v35l262 390l-251 398v42h417v-46h-358l243 -376v-28l-248 -369h380v-46h-445z" />
    <glyph glyph-name="minus" unicode="&#x2212;" horiz-adv-x="514" 
d="M50 286v44h414v-44h-414z" />
    <glyph glyph-name="uni2219" unicode="&#x2219;" horiz-adv-x="212" 
d="M152 291q0 -20 -13 -32.5t-33 -12.5t-33 12.5t-13 32.5t13 32.5t33 12.5t33 -12.5t13 -32.5z" />
    <glyph glyph-name="radical" unicode="&#x221a;" horiz-adv-x="487" 
d="M230 -64l-119 344h-85v45h119l114 -350l145 675h43l-152 -714h-65z" />
    <glyph glyph-name="infinity" unicode="&#x221e;" horiz-adv-x="692" 
d="M344 229q-8 -23 -23.5 -47t-37 -43.5t-47 -32.5t-53.5 -13q-70 0 -113.5 43t-43.5 118q0 41 12.5 72.5t33.5 52.5t48.5 31.5t56.5 10.5q55 0 99 -35t72 -101q7 22 23 46.5t37.5 44t47.5 32.5t53 13q70 0 113.5 -43t43.5 -118q0 -41 -12.5 -72.5t-33.5 -52.5t-48.5 -31.5
t-56.5 -10.5q-55 0 -99 35t-72 101zM334 258q-8 23 -22 45.5t-33.5 40t-43 28.5t-50.5 11q-35 0 -58 -13t-36.5 -32.5t-19 -42.5t-5.5 -42q0 -20 6.5 -42t20.5 -40.5t37 -30.5t55 -12q26 0 49 11t41.5 29t33.5 41.5t25 48.5zM358 256q8 -23 22 -45.5t33.5 -40t43 -28.5
t50.5 -11q35 0 58 13t36.5 32.5t19 42t5.5 42.5t-6.5 42t-21 40.5t-37 30.5t-54.5 12q-26 0 -49 -11t-41.5 -29t-33.5 -41.5t-25 -48.5z" />
    <glyph glyph-name="integral" unicode="&#x222b;" horiz-adv-x="354" 
d="M46 -181h44q40 0 51 17.5t11 58.5v650q0 22 3 43t13 36.5t28.5 25t49.5 9.5q15 0 32 -2.5t30 -5.5v-34h-44q-40 0 -51 -17.5t-11 -58.5v-650q0 -23 -3 -43.5t-13 -36t-28.5 -25t-49.5 -9.5q-15 0 -32 2.5t-30 5.5v34z" />
    <glyph glyph-name="approxequal" unicode="&#x2248;" horiz-adv-x="514" 
d="M444 226q-53 -44 -98 -44q-26 0 -49 9t-44.5 20t-42.5 20t-43 9q-28 0 -49.5 -13.5t-47.5 -37.5v48q17 14 40.5 28.5t56.5 14.5q26 0 49 -9t44.5 -19.5t42.5 -19.5t44 -9q47 0 97 51v-48zM444 379q-53 -44 -98 -44q-26 0 -49 9t-44.5 20t-42.5 20t-43 9
q-28 0 -49.5 -13.5t-47.5 -37.5v48q17 14 40.5 28.5t56.5 14.5q26 0 49 -9t44.5 -19.5t42.5 -19.5t44 -9q47 0 97 51v-48z" />
    <glyph glyph-name="notequal" unicode="&#x2260;" horiz-adv-x="514" 
d="M236 206l-104 -206h-52l104 206h-134v42h156l60 118h-216v42h237l95 186h52l-95 -186h125v-42h-146l-60 -118h206v-42h-228z" />
    <glyph glyph-name="lessequal" unicode="&#x2264;" horiz-adv-x="514" 
d="M32 324v42l422 208v-43l-379 -186l379 -186v-43zM32 0v40h422v-40h-422z" />
    <glyph glyph-name="greaterequal" unicode="&#x2265;" horiz-adv-x="514" 
d="M60 116v43l379 186l-379 186v43l422 -208v-42zM60 0v40h422v-40h-422z" />
    <glyph glyph-name="lozenge" unicode="&#x25ca;" horiz-adv-x="554" 
d="M458 325l-181 274l-181 -274l181 -274zM260 0l-216 325l216 325h34l216 -325l-216 -325h-34z" />
    <glyph glyph-name="uni0E10.alt1" unicode="&#xf700;" horiz-adv-x="571" 
d="M207 0l-98 209q-10 20 -21.5 41t-19.5 34h65l111 -240q40 4 79.5 22.5t71.5 50t52 75t20 98.5q0 50 -13.5 91t-41 70t-69 44.5t-97.5 15.5q-60 0 -113 -14t-93 -32v46q38 17 92.5 31.5t117.5 14.5q42 0 75.5 -8t61.5 -22l69 67h71l-102 -92q48 -38 70 -93.5t22 -118.5
q0 -65 -23 -115.5t-60.5 -87t-84.5 -58.5t-95 -29h-47z" />
    <glyph glyph-name="uni0E34.alt1" unicode="&#xf701;" 
d="M-609 646v44h421v-44h-421z" />
    <glyph glyph-name="uni0E35.alt1" unicode="&#xf702;" 
d="M-609 646v44h373l-2 120h50v-164h-421z" />
    <glyph glyph-name="uni0E36.alt1" unicode="&#xf703;" 
d="M-609 646v44h259q-13 20 -13 46q0 37 26 64t71 27q46 0 72 -27t26 -64q0 -36 -26 -63t-72 -27h-343zM-209 736q0 27 -16 41t-41 14q-24 0 -40 -14t-16 -41q0 -26 16 -40t40 -14q25 0 41 14t16 40z" />
    <glyph glyph-name="uni0E37.alt1" unicode="&#xf704;" 
d="M-609 646v44h261l-2 120h50v-120h64l-2 120h50v-164h-421z" />
    <glyph glyph-name="uni0E48.alt1" unicode="&#xf705;" 
d="M-343 646v197h50v-197h-50z" />
    <glyph glyph-name="uni0E49.alt1" unicode="&#xf706;" 
d="M-499 646v36q18 4 36 11t32.5 18.5t24 26t9.5 33.5q0 17 -11 28t-33 11q-16 0 -30.5 -3.5t-23.5 -7.5v45q13 4 29.5 7t32.5 3q45 0 66 -20.5t21 -55.5q0 -29 -16 -51t-44 -37l192 3v-47h-285z" />
    <glyph glyph-name="uni0E4A.alt1" unicode="&#xf707;" 
d="M-306 646v60q0 27 -7.5 43t-29.5 16t-32 -16.5t-14 -37.5h-51q-4 21 -14 37.5t-32 16.5t-29.5 -16t-7.5 -43v-60h-54v57q0 49 20.5 80t66.5 31q55 0 75 -59q21 59 76 59q46 0 69.5 -34t15.5 -89l87 2v-47h-139z" />
    <glyph glyph-name="uni0E4B.alt1" unicode="&#xf708;" 
d="M-321 750l2 -104h-51l2 104l-110 -2v47l110 -2l-2 104h51l-2 -104l109 2v-47z" />
    <glyph glyph-name="uni0E4C.alt1" unicode="&#xf709;" 
d="M-323 726q-29 0 -44 -9t-15 -38q0 -9 2 -19.5t7 -23.5h-54q-5 14 -8 25.5t-3 23.5q0 45 27.5 67t87.5 22h138v-48h-138z" />
    <glyph glyph-name="uni0E48.alt2" unicode="&#xf70a;" 
d="M-129 646v197h50v-197h-50z" />
    <glyph glyph-name="uni0E49.alt2" unicode="&#xf70b;" 
d="M-285 646v36q18 4 36 11t32.5 18.5t24 26t9.5 33.5q0 17 -11 28t-33 11q-16 0 -30.5 -3.5t-23.5 -7.5v45q13 4 29.5 7t32.5 3q45 0 66 -20.5t21 -55.5q0 -29 -16 -51t-44 -37l192 3v-47h-285z" />
    <glyph glyph-name="uni0E4A.alt2" unicode="&#xf70c;" 
d="M-174 646v60q0 27 -7.5 43t-29.5 16t-32 -16.5t-14 -37.5h-51q-4 21 -14 37.5t-32 16.5t-29.5 -16t-7.5 -43v-60h-54v57q0 49 20.5 80t66.5 31q55 0 75 -59q21 59 76 59q46 0 69.5 -34t15.5 -89l87 2v-47h-139z" />
    <glyph glyph-name="uni0E4B.alt2" unicode="&#xf70d;" 
d="M-191 750l2 -104h-51l2 104l-110 -2v47l110 -2l-2 104h51l-2 -104l109 2v-47z" />
    <glyph glyph-name="uni0E4C.alt2" unicode="&#xf70e;" 
d="M-163 726q-29 0 -44 -9t-15 -38q0 -9 2 -19.5t7 -23.5h-54q-5 14 -8 25.5t-3 23.5q0 45 27.5 67t87.5 22h138v-48h-138z" />
    <glyph glyph-name="uni0E0D.alt1" unicode="&#xf70f;" horiz-adv-x="976" 
d="M849 547h50v-365q0 -49 -15.5 -85t-43.5 -60t-67.5 -35.5t-87.5 -11.5t-87.5 11.5t-67.5 35.5t-43.5 60t-15.5 85v152q0 49 -9.5 82.5t-29.5 54.5t-52 30.5t-77 9.5q-48 0 -92.5 -7t-80.5 -18v-352q0 -30 6 -49t17 -30t27 -15t36 -4q42 0 72 11v-42q-15 -6 -35.5 -9.5
t-40.5 -3.5q-62 0 -97 31t-35 105v391q51 15 107 26.5t122 11.5q106 0 159 -53.5t53 -165.5v-154q0 -148 164 -148t164 148v363z" />
    <glyph glyph-name="uni0E31.alt1" unicode="&#xf710;" 
d="M-421 646q-54 0 -81.5 21.5t-27.5 60.5q0 22 9 48h49q-7 -21 -7 -41q0 -27 15 -36t43 -9h244v-44h-244z" />
    <glyph glyph-name="uni0E4D.alt1" unicode="&#xf711;" 
d="M-260 721q0 32 -18.5 49t-48.5 17t-48.5 -17t-18.5 -49t18.5 -49t48.5 -17t48.5 17t18.5 49zM-215 721q0 -42 -30 -73t-82 -31t-82 31t-30 73t30 73t82 31t82 -31t30 -73z" />
    <glyph glyph-name="uni0E47.alt1" unicode="&#xf712;" 
d="M-269 646q-73 0 -96 68q-14 -35 -36 -53.5t-57 -18.5q-54 0 -83.5 31t-29.5 86q0 60 36 88t102 28h229v-43h-226q-48 0 -70 -18.5t-22 -54.5q0 -21 6 -35t15.5 -22.5t21 -12.5t22.5 -4q35 0 48.5 20t18.5 46h49q4 -26 22 -44t56 -18h59v-43h-65z" />
    <glyph glyph-name="uni0E48.alt3" unicode="&#xf713;" 
d="M-238 869v152h50v-152h-50z" />
    <glyph glyph-name="uni0E49.alt3" unicode="&#xf714;" 
d="M-411 869v33q16 3 32.5 9.5t29.5 16.5t21.5 23t8.5 30q0 36 -42 36q-12 0 -25 -3t-21 -7v42q11 4 26.5 6.5t29.5 2.5q40 0 59.5 -18.5t19.5 -52.5q0 -27 -15.5 -45.5t-38.5 -32.5l183 3v-43h-268z" />
    <glyph glyph-name="uni0E4A.alt3" unicode="&#xf715;" 
d="M-270 869v55q0 24 -5 38.5t-25 14.5t-29 -14.5t-13 -34.5h-46q-4 20 -13 34.5t-29 14.5t-25 -14.5t-5 -38.5v-55h-49v52q0 44 17 72.5t58 28.5q51 0 69 -54q18 54 69 54q42 0 61 -30.5t12 -81.5l79 2v-43h-126z" />
    <glyph glyph-name="uni0E4B.alt3" unicode="&#xf716;" 
d="M-191 964l2 -95h-48l2 95l-100 -2v46l100 -2l-2 95h48l-2 -95l99 2v-46z" />
    <glyph glyph-name="uni0E4C.alt3" unicode="&#xf717;" 
d="M-258 860q-26 0 -40 -8t-14 -35q0 -8 1.5 -17.5t6.5 -21.5h-49q-10 24 -10 45q0 40 25.5 60.5t79.5 20.5h134v-44h-134z" />
    <glyph glyph-name="uni0E38.alt1" unicode="&#xf718;" 
d="M-127 -452v100q0 45 -43 45q-11 0 -22.5 -2t-20.5 -5v40q10 3 26 5.5t30 2.5q35 0 57 -20t22 -62v-104h-49z" />
    <glyph glyph-name="uni0E39.alt1" unicode="&#xf719;" 
d="M-127 -272h49v-87q0 -27 -11 -47t-30 -33t-44 -19.5t-52 -6.5t-52 6.5t-44 19.5t-30 33t-11 47v49h-64v38h113v-81q0 -42 21.5 -56.5t66.5 -14.5q46 0 67 14.5t21 56.5v81z" />
    <glyph glyph-name="uni0E3A.alt1" unicode="&#xf71a;" 
d="M-56 -310q0 -21 -13.5 -33t-32.5 -12t-32.5 12t-13.5 33t13.5 33t32.5 12t32.5 -12t13.5 -33z" />
    <glyph glyph-name="uni0E0E.alt1" unicode="&#xf71b;" horiz-adv-x="643" 
d="M521 -213l-158 56q-26 9 -49.5 14.5t-43.5 5.5q-42 0 -68 -18.5t-26 -56.5h-48q0 60 41 91t104 31q23 0 46.5 -5.5t49.5 -14.5l147 -54v501q0 48 -9.5 81t-29.5 53.5t-52.5 30t-77.5 9.5q-51 0 -94 -7t-79 -18v-373q0 -63 -27 -91t-75 -28q-18 0 -32 2t-22 4v41
q20 -5 47 -5t43 17.5t16 62.5v403q51 15 105.5 26.5t123.5 11.5q213 0 213 -215v-555h-45z" />
    <glyph glyph-name="uni0E0F.alt1" unicode="&#xf71c;" horiz-adv-x="643" 
d="M496 -213q-48 0 -83.5 20.5t-46.5 57.5q-11 -38 -47 -60t-84 -22q-30 0 -55 8t-45 19v47q21 -14 44.5 -22t55.5 -8q46 0 71 22.5t33 67.5h54q23 -86 103 -86h20v506q0 48 -9.5 81t-29.5 53.5t-52.5 30t-77.5 9.5q-51 0 -94 -7t-79 -18v-373q0 -63 -27 -91t-75 -28
q-18 0 -32 2t-22 4v41q20 -5 47 -5t43 17.5t16 62.5v403q51 15 105.5 26.5t123.5 11.5q213 0 213 -215v-555h-70z" />
    <glyph glyph-name="uni0E2C.alt1" unicode="&#xf71d;" horiz-adv-x="670" 
d="M536 0l-203 313l-199 -313h-54v547h50v-344q0 -37 -1 -74.5t-6 -71.5h2q14 30 32 61t37 61l114 177h50l114 -177q19 -30 39 -61t34 -61h2q-5 34 -6 71.5t-1 74.5v156q0 30 -6 49t-17 30t-27 15t-36 4q-42 0 -72 -11v42q14 6 34.5 9.5t40.5 3.5l80 93h60l-89 -99
q39 -11 60.5 -42t21.5 -88v-365h-54z" />
    <glyph glyph-name="uniF8FF" unicode="&#xf8ff;" horiz-adv-x="1170" 
d="M1070 555v-555l-485 -276l-485 276v555l485 277zM614 779l310 -479l93 248zM153 548l93 -248l310 479zM129 18l98 251v2l-98 261v-514zM556 -230l-310 469l-93 -239zM261 269l324 -492l324 492l-324 501zM1018 0l-94 239l-310 -469zM1041 532l-98 -263l98 -251v514z
M415 300q2 -2 5 -4t4 -4q0 -5 1 -8q-20 -23 -36.5 -29t-25.5 -6q18 12 32.5 28.5t19.5 22.5zM450 199q8 0 10 -14t-1 -27q-5 -14 -14 -19.5t-21 -5.5q-15 1 -22.5 10.5t-10.5 21.5t-4 22.5t-2 15.5q-2 8 -2 19t-1 23h1q8 3 18 9.5t21 17.5q4 -19 2.5 -38t-4.5 -33
q-1 -4 -1.5 -11t0.5 -13.5t2.5 -12.5t5.5 -7q7 -2 9 3t3 8q1 8 -1.5 10.5t-4.5 6.5q-2 5 5.5 9.5t11.5 4.5zM558 212q1 1 1.5 4t2.5 6q1 4 3 8q-1 -2 -0.5 -8.5t0.5 -14.5q0 -9 1 -19q-6 1 -11 6q-3 2 -4 3q1 2 3 5q1 2 2 5t2 5zM765 173q2 5 5 8t5 9v-6v-6t-2 -8
q-3 -8 -5 -22t-2 -22q2 -8 2.5 -14t-4.5 -8q1 1 1 4q0 2 -2 12q-5 11 -3 30q1 4 2 11t3 12zM553 125q4 -4 9 -2q3 0 6 2q0 -8 1.5 -13.5t-0.5 -10.5q-1 3 -4 7t-9 2q-3 0 -7 -8q-2 8 -8 8q-5 0 -6.5 -3t-3.5 -6l-4 6l-6 3q-3 0 -5.5 -3.5t-4.5 -5.5q-2 7 2 22q1 3 0.5 8.5
t-0.5 10.5q-1 6 -1 13q14 -6 25 -16t16 -14zM576 168q2 2 10 2q1 -4 -2 -13q-8 6 -8 11zM568 155q2 2 6 1t7 -3l-2 -4q-1 -2 -2 -3t-2 -3q-7 5 -7 12zM562 141q2 1 10 -3q-5 -5 -9 -6q-2 2 -3.5 5t0.5 3zM558 106q5 2 7 -6q-2 -4 -13 -6q2 12 6 12zM541 105q2 0 3 -3.5
t3 -7.5h-6h-8q0 4 2.5 7.5t5.5 3.5zM524 104q4 -4 4 -9q-10 2 -13 4q6 8 7 7zM748 106q3 1 7 -6q-2 -2 -5 -3.5t-9 -2.5q3 12 7 12zM730 105q2 0 4 -3.5t3 -7.5h-6h-8q1 4 3 7.5t4 3.5zM713 105q3 -3 5 -10q-5 2 -8.5 2.5t-5.5 1.5q3 8 6 7zM798 241q1 -3 3 -7q1 -3 2 -7.5
t1 -9.5t-1 -9.5t-2 -8.5l-2 -8q-3 4 -6 10q-2 5 -3.5 14t-0.5 23q1 15 0 28q-1 11 -2.5 23t-4.5 20q-2 -13 -5 -24l-4 -20t-4 -15q-3 -10 -1.5 -24t3.5 -21q2 -8 -3 -13t-9 -16q-3 -8 -4.5 -17t-1.5 -14q0 -7 1 -15.5t5 -17.5q2 -8 0 -10q-2 3 -4.5 6t-7.5 2q-4 0 -8 -8
q-2 8 -9 8q-5 0 -10 -7l-2 6l-7 2q-4 0 -6.5 -3t-4.5 -6q-2 4 -1 9q4 17 7.5 38t-2.5 34q-3 6 -10 14.5t-14.5 19t-13 22t-6.5 25.5q-1 -1 -2 -4q-2 -6 2 -17q-12 -2 -25 -1q-12 1 -27.5 3t-33.5 8q0 2 1 5q1 2 1.5 5.5t2.5 8.5q-2 -4 -6 -8q-3 -4 -6.5 -10.5t-5.5 -15.5
q-2 -6 -8 -19.5t-8 -18.5t7 -11.5t14 -8.5l8 -2t7 -3q-6 0 -9 -5v-2q0 -3 4 -9q-8 2 -10 -2l-1 -4q0 -5 3 -8h-7l-5 -2q-2 -7 2 -12q-2 2 -5 3.5t-7 4.5q-5 4 -11.5 9t-13 9.5t-12 7.5t-7.5 3q-4 2 -10 8.5t-5 23.5q1 8 3 22t3.5 28.5t3.5 27t3 17.5q-2 0 -3 -2
q-1 -1 -5 -11l-16 25q5 3 8.5 8t5.5 9l6 -9l4 -6l4 3q0 1 4.5 6.5t6.5 11.5q5 12 7 27l1.5 7.5t1.5 4.5l3 7l5 12.5t4.5 16t0 17t-8.5 16.5q-8 7 -15.5 9.5t-14.5 2.5q-8 0 -15 -2l5 -0.5t11 -2t12.5 -4t10.5 -7.5q8 -9 8 -22q0 -10 -3.5 -18t-5.5 -16l-3 -7q-1 -2 -1.5 -5
t-2.5 -8q-2 -12 -5 -26q-2 -2 -4.5 -6t-4.5 -7q-3 3 -7 11q-2 4 -4 7l-3 -5q-2 -3 -6.5 -10.5t-9.5 -10.5q-7 -3 -12 -5t-9 -6q-2 -2 -4.5 -5t-4.5 -11q-1 -3 -2.5 -4.5l-3.5 -3.5t-4 -2v2q0 1 -0.5 2.5t-0.5 3.5q-1 2 -0.5 5t0.5 5v4l-16 13l-3 -2q-4 -6 -9 -12
q-5 -5 -11 -12t-13 -14q-1 2 -1 3.5t-1 3.5q-1 -2 -5 -4q-3 -2 -8 -3.5t-13 -1.5q15 11 21 19q3 4 3 6q-1 9 -1 17.5v15.5q0 8 1 16q-1 7 -1.5 22t1.5 23t4.5 15.5t7.5 23.5q6 14 15 18q4 2 10 2q5 6 10 11t10.5 8.5t12.5 4.5q21 2 36.5 -1t28.5 -1q6 1 16 3t21.5 4t22.5 3
t20 0q8 -1 25 -4.5t36.5 -9t37.5 -12.5t29 -15q10 -9 22.5 -19.5t23.5 -24.5t19.5 -31.5t10.5 -40.5t3 -38t2 -24v-17zM450 383q0 2 1.5 3.5l3.5 3.5t4 5q-2 1 -5 1q-6 0 -10 -5q-4 -3 -4 -11q0 -4 1 -7l3 3q2 2 3 3.5t3 3.5zM521 423q-4 6 -8 8t-9 3t-10 0q18 -5 22 -16
q2 -10 2 -17q0 -5 -1 -10q3 5 5 10t2 10.5t-3 11.5z" />
    <glyph glyph-name="NULL" 
 />
    <glyph glyph-name="uni0E33.alt1" horiz-adv-x="513" 
d="M356 0v347q0 85 -38 125t-110 40q-64 0 -108 -15.5t-76 -33.5v47q31 17 77 32t109 15q40 0 75.5 -11.5t62 -36t42 -63t15.5 -91.5v-355h-49zM-260 721q0 32 -18.5 49t-48.5 17t-48.5 -17t-18.5 -49t18.5 -49t48.5 -17t48.5 17t18.5 49zM-215 721q0 -42 -30 -73t-82 -31
t-82 31t-30 73t30 73t82 31t82 -31t30 -73z" />
    <glyph glyph-name="uni0E4E.alt1" 
 />
    <glyph glyph-name="uni0E01.alt" horiz-adv-x="618" 
d="M491 0v340q0 49 -12.5 82t-37.5 53t-63.5 28t-89.5 8q-26 0 -46.5 -1.5t-43.5 -4.5q-19 -18 -36 -40t-29.5 -46.5t-20 -50.5t-7.5 -51v-317h-50v316q0 51 24.5 96.5t61.5 83.5l-107 -22v30q23 10 52.5 19.5t62.5 17t68 12t68 4.5q132 0 194 -53.5t62 -152.5v-351h-50z
" />
    <glyph glyph-name="uni0E2B.alt" horiz-adv-x="625" 
d="M501 0v183q0 46 -10.5 76t-28.5 47.5t-43 24t-53 6.5q-67 0 -127.5 -20.5t-111.5 -46.5v-270h-50v547h50v-233q22 11 51 23t60.5 22t64.5 16.5t64 6.5h10t10 -1l94 166h60l-102 -175q59 -18 85.5 -67t26.5 -113v-192h-50z" />
    <glyph glyph-name="uni0E2D.alt" horiz-adv-x="612" 
d="M556 269q0 -75 -21.5 -128t-59 -86.5t-88.5 -49t-109 -15.5q-66 0 -120.5 12.5t-94.5 31.5v261h50v-231q32 -14 70.5 -21t89.5 -7q52 0 94.5 12t73.5 39.5t48 72t17 109.5q0 242 -237 242q-64 0 -115.5 -12.5t-93.5 -30.5v48q39 16 91.5 28.5t118.5 12.5q70 0 123.5 -20
t89.5 -57.5t54.5 -91t18.5 -119.5z" />
    <glyph glyph-name="zero.tab" horiz-adv-x="600" 
d="M300 -10q-115 0 -179.5 80.5t-64.5 234.5t64.5 234.5t179.5 80.5t179.5 -80.5t64.5 -234.5t-64.5 -234.5t-179.5 -80.5zM300 35q99 0 146.5 70.5t47.5 199.5t-47.5 199.5t-146.5 70.5t-146.5 -70.5t-47.5 -199.5t47.5 -199.5t146.5 -70.5z" />
    <glyph glyph-name="one.tab" horiz-adv-x="600" 
d="M312 0v555q-53 -78 -158 -73v42q54 -2 91.5 18t70.5 68h46v-610h-50z" />
    <glyph glyph-name="two.tab" horiz-adv-x="600" 
d="M90 0v40q168 103 256.5 199.5t88.5 193.5q0 66 -41.5 104t-126.5 38q-48 0 -89.5 -10.5t-70.5 -23.5v47q22 10 65.5 21t97.5 11q57 0 97.5 -15.5t67 -41t38.5 -60t12 -71.5q0 -57 -26 -109t-69.5 -100.5t-101.5 -92.5t-122 -84h328v-46h-404z" />
    <glyph glyph-name="three.tab" horiz-adv-x="600" 
d="M92 73q36 -15 81 -26t103 -11q31 0 59.5 5.5t51 20t36 40t13.5 64.5t-17 64t-47 40t-70 20.5t-85 4.5v45q43 -2 79.5 4t63.5 21.5t42 41t15 62.5q0 106 -143 106q-21 0 -44.5 -3t-46 -8.5t-43 -12t-36.5 -13.5v47q28 13 73 24t99 11q38 0 72.5 -8t61 -26t42 -47t15.5 -71
q0 -65 -34.5 -101t-82.5 -48v-2q26 -3 50.5 -14.5t43.5 -30.5t30.5 -46t11.5 -61q0 -47 -15.5 -80.5t-43.5 -54.5t-65.5 -30.5t-81.5 -9.5q-60 0 -108.5 10.5t-79.5 24.5v48z" />
    <glyph glyph-name="four.tab" horiz-adv-x="600" 
d="M391 0v131h-329v41l325 438h54v-434h97v-45h-97v-131h-50zM391 544l-269 -368h269v368z" />
    <glyph glyph-name="five.tab" horiz-adv-x="600" 
d="M92 67q16 -6 37 -12t44 -10.5t46.5 -7t44.5 -2.5q100 0 145 35t45 113q0 75 -49.5 107.5t-140.5 32.5q-54 0 -93 -5.5t-65 -10.5l13 303h348v-45h-304l-9 -207q19 3 54 6.5t69 3.5q112 0 169.5 -49t57.5 -136q0 -94 -58 -143.5t-181 -49.5q-46 0 -93 8.5t-80 20.5v48z
" />
    <glyph glyph-name="six.tab" horiz-adv-x="600" 
d="M456 548q-20 10 -49 19.5t-67 9.5q-47 0 -86 -18t-67 -53.5t-44 -87.5t-16 -120q13 19 33.5 36t46.5 30.5t56.5 21.5t63.5 8q56 0 95 -16.5t63 -43.5t34.5 -62.5t10.5 -74.5q0 -50 -16 -88.5t-44.5 -64.5t-67 -40t-84.5 -14q-53 0 -96.5 18t-75 56t-49 95.5t-17.5 137.5
q0 81 19.5 141.5t54 101t81.5 60.5t102 20q35 0 67 -9t52 -19v-44zM127 244q3 -46 17 -84.5t38 -66.5t58.5 -43.5t78.5 -15.5q32 0 61.5 9t52 28.5t36 49.5t13.5 73q0 30 -7.5 58.5t-25.5 50t-48 34.5t-76 13q-61 0 -112 -27.5t-86 -78.5z" />
    <glyph glyph-name="seven.tab" horiz-adv-x="600" 
d="M190 0l242 565h-346v45h400v-37l-246 -573h-50z" />
    <glyph glyph-name="eight.tab" horiz-adv-x="600" 
d="M258 309q-47 9 -78 24.5t-50 36.5t-27 46t-8 52q0 69 53.5 110.5t147.5 41.5q100 0 152.5 -40.5t52.5 -110.5q0 -59 -42 -98t-110 -62v-2q81 -12 126 -51.5t45 -102.5q0 -78 -56 -120.5t-164 -42.5q-48 0 -88 9.5t-69.5 29t-46 48t-16.5 66.5q0 64 42 104.5t136 59.5v2z
M297 286q-36 -8 -67 -20.5t-53.5 -29.5t-35 -38.5t-12.5 -48.5q0 -60 45 -89t126 -29q27 0 57.5 6t55.5 20t41.5 37.5t16.5 58.5q0 62 -47.5 91.5t-126.5 41.5zM310 331q27 9 52.5 20t45.5 27t32 38t12 53q0 49 -40 79.5t-115 30.5q-72 0 -112.5 -31t-40.5 -80
q0 -62 43.5 -93t122.5 -44z" />
    <glyph glyph-name="nine.tab" horiz-adv-x="600" 
d="M144 62q20 -10 49 -19.5t67 -9.5q46 0 85 18t67.5 53.5t44 87.5t15.5 120q-14 -19 -34.5 -36t-46 -30.5t-55.5 -21.5t-63 -8q-56 0 -95 16.5t-63 43.5t-34.5 62.5t-10.5 74.5q0 49 16 88t44.5 65t67 40t84.5 14q52 0 96 -18t75.5 -56t49 -96t17.5 -137
q0 -81 -19.5 -141.5t-54 -101t-81.5 -60.5t-102 -20q-35 0 -67 9t-52 19v44zM472 366q-3 46 -16.5 84.5t-37.5 66.5t-58 43.5t-79 15.5q-32 0 -61.5 -9t-52 -28.5t-36 -49.5t-13.5 -73q0 -30 7.5 -58.5t25.5 -50t48 -34.5t76 -13q61 0 111.5 27.5t85.5 78.5z" />
    </font>
</defs>
</svg>
